<svg xmlns="http://www.w3.org/2000/svg"><defs><font horiz-adv-x="512"><font-face ascent="480" descent="-32" units-per-em="512"/><missing-glyph horiz-adv-x="512"/><glyph d="M0 480 512-32 0-32z" horiz-adv-x="0" unicode="&#xf000;"/><glyph d="M24-32l224 0c4.416 0 8 3.584 8 8S252.416-16 248-16l-224 0C19.584-16 16-12.416 16-8l0 464C16 460.416 19.584 464 24 464l336 0C364.416 464 368 460.416 368 456l0-80C368 371.584 371.584 368 376 368S384 371.584 384 376l0 80C384 469.232 373.232 480 360 480l-336 0C10.768 480 0 469.232 0 456l0-464C0-21.232 10.768-32 24-32zM288 312l0-320c0-13.232 10.768-24 24-24l176 0c13.232 0 24 10.768 24 24l0 320C512 325.232 501.232 336 488 336l-176 0C298.768 336 288 325.232 288 312zM496 312l0-320c0-4.416-3.584-8-8-8l-176 0c-4.416 0-8 3.584-8 8l0 320c0 4.416 3.584 8 8 8l176 0C492.416 320 496 316.416 496 312zM176 32A16 16 180 1 1 208 32 16 16 180 1 1 176 32zM384 32A16 16 180 1 1 416 32 16 16 180 1 1 384 32z" unicode="&#xe000;"/><glyph d="M56 64C60.416 64 64 67.584 64 72L64 448c0 9.568 6.432 16 16 16l512 0c9.12 0 16-7.488 16-17.424L608 72c0-4.416 3.584-8 8-8s8 3.584 8 8L624 446.576C624 465.328 609.952 480 592 480L80 480C61.456 480 48 466.544 48 448l0-376C48 67.584 51.584 64 56 64zM104 432C99.584 432 96 428.416 96 424l0-352C96 67.584 99.584 64 104 64l464 0c4.416 0 8 3.584 8 8l0 352C576 428.416 572.416 432 568 432L104 432zM560 80 112 80 112 416l448 0L560 80zM664 32l-656 0C3.584 32 0 28.416 0 24l0-18.8C0-13.968 22.528-32 40-32l592 0c18.32 0 40 21.68 40 40l0 16C672 28.416 668.416 32 664 32zM656 8c0-9.424-14.576-24-24-24l-592 0C29.904-16 16-3.712 16 5.2L16 16l640 0L656 8z" horiz-adv-x="672" unicode="&#xe001;"/><glyph d="M24 80 304 80l0-24c0-4.416 3.584-8 8-8s8 3.584 8 8L320 80l280 0c13.232 0 24 10.768 24 24l0 352C624 469.232 613.232 480 600 480l-576 0C10.768 480 0 469.232 0 456l0-352C0 90.768 10.768 80 24 80zM16 456C16 460.416 19.584 464 24 464l576 0C604.416 464 608 460.416 608 456l0-352c0-4.416-3.584-8-8-8l-576 0C19.584 96 16 99.584 16 104L16 456zM56 128l512 0c4.416 0 8 3.584 8 8l0 288C576 428.416 572.416 432 568 432l-512 0C51.584 432 48 428.416 48 424l0-288C48 131.584 51.584 128 56 128zM64 416l496 0 0-272L64 144 64 416zM224 32c-18.24 0-32-13.76-32-32l0-24c0-4.416 3.584-8 8-8l224 0c4.416 0 8 3.584 8 8l0 22.8C432 17.408 417.952 32 400 32L224 32zM416-1.2 416-16 208-16l0 16c0 9.424 6.576 16 16 16l176 0C409.12 16 416 8.608 416-1.2z" horiz-adv-x="624" unicode="&#xe002;"/><glyph d="M24-32l352 0c13.232 0 24 10.768 24 24l0 464C400 469.232 389.232 480 376 480l-352 0C10.768 480 0 469.232 0 456l0-464C0-21.232 10.768-32 24-32zM16 456C16 460.416 19.584 464 24 464l352 0C380.416 464 384 460.416 384 456l0-464c0-4.416-3.584-8-8-8l-352 0C19.584-16 16-12.416 16-8L16 456zM56 48l288 0c4.416 0 8 3.584 8 8l0 368C352 428.416 348.416 432 344 432l-288 0C51.584 432 48 428.416 48 424l0-368C48 51.584 51.584 48 56 48zM64 416l272 0 0-352L64 64 64 416zM192 16A16 16 180 1 1 224 16 16 16 180 1 1 192 16z" horiz-adv-x="400" unicode="&#xe003;"/><glyph d="M24-32l256 0c13.232 0 24 10.768 24 24l0 464C304 469.232 293.232 480 280 480l-256 0C10.768 480 0 469.232 0 456l0-464C0-21.232 10.768-32 24-32zM16 456C16 460.416 19.584 464 24 464l256 0C284.416 464 288 460.416 288 456l0-464c0-4.416-3.584-8-8-8l-256 0C19.584-16 16-12.416 16-8L16 456zM40 48l224 0c4.416 0 8 3.584 8 8l0 336C272 396.416 268.416 400 264 400l-224 0C35.584 400 32 396.416 32 392l0-336C32 51.584 35.584 48 40 48zM48 384l208 0 0-320L48 64 48 384zM144 16A16 16 180 1 1 176 16 16 16 180 1 1 144 16zM120 416l64 0C188.416 416 192 419.584 192 424S188.416 432 184 432l-64 0C115.584 432 112 428.416 112 424S115.584 416 120 416z" horiz-adv-x="304" unicode="&#xe004;"/><glyph d="M24-32l336 0c13.232 0 24 10.768 24 24l0 336c0 .272-.128.496-.144.752-.032.368-.128.688-.208 1.04-.272 1.136-.736 2.16-1.44 3.056-.112.144-.096.32-.208.464l-128 144c-.048.048-.112.048-.16.096-.96 1.024-2.176 1.728-3.568 2.144-.304.096-.576.128-.896.176C248.912 479.808 248.48 480 248 480l-224 0C10.768 480 0 469.232 0 456l0-464C0-21.232 10.768-32 24-32zM256 450.96 358.192 336 264 336C260.48 336 256 342.72 256 348L256 450.96zM16 456C16 460.416 19.6 464 24 464L240 464l0-116C240 335.056 250.48 320 264 320L368 320l0-328c0-4.416-3.6-8-8-8l-336 0C19.52-16 16-12.48 16-8L16 456zM88 256l208 0c4.416 0 8 3.584 8 8S300.416 272 296 272l-208 0C83.584 272 80 268.416 80 264S83.584 256 88 256zM88 192l208 0c4.416 0 8 3.584 8 8S300.416 208 296 208l-208 0C83.584 208 80 204.416 80 200S83.584 192 88 192zM88 320l96 0c4.416 0 8 3.584 8 8S188.416 336 184 336l-96 0C83.584 336 80 332.416 80 328S83.584 320 88 320zM88 128l208 0c4.416 0 8 3.584 8 8S300.416 144 296 144l-208 0C83.584 144 80 140.416 80 136S83.584 128 88 128zM88 64l208 0c4.416 0 8 3.584 8 8S300.416 80 296 80l-208 0C83.584 80 80 76.416 80 72S83.584 64 88 64z" horiz-adv-x="384" unicode="&#xe005;"/><glyph d="M24.192 32 312 32c13.232 0 24 10.768 24 24l0 304c0 .368-.16.688-.208 1.04-.048.352-.112.656-.208.992-.368 1.376-.96 2.656-1.952 3.632l-111.984 111.984c-.976.976-2.256 1.568-3.632 1.952-.336.096-.64.16-.992.208C216.688 479.84 216.368 480 216 480L24.096 480C10.816 480 0 469.232 0 456l0-400C0 42.768 10.848 32 24.192 32zM224 452.688 308.688 368 232 368C227.6 368 224 371.584 224 376L224 452.688zM16 456C16 460.416 19.632 464 24.096 464L208 464l0-88C208 362.768 218.768 352 232 352L320 352l0-296c0-4.416-3.6-8-8-8L24.192 48C19.664 48 16 51.584 16 56L16 456zM72 288l192 0c4.416 0 8 3.584 8 8S268.416 304 264 304l-192 0C67.584 304 64 300.416 64 296S67.584 288 72 288zM72 224l192 0c4.416 0 8 3.584 8 8S268.416 240 264 240l-192 0C67.584 240 64 236.416 64 232S67.584 224 72 224zM72 352l80 0C156.416 352 160 355.584 160 360S156.416 368 152 368l-80 0C67.584 368 64 364.416 64 360S67.584 352 72 352zM72 160l192 0c4.416 0 8 3.584 8 8S268.416 176 264 176l-192 0C67.584 176 64 172.416 64 168S67.584 160 72 160zM72 96l192 0c4.416 0 8 3.584 8 8S268.416 112 264 112l-192 0C67.584 112 64 108.416 64 104S67.584 96 72 96zM344 400 416 400l0-88c0-13.232 10.768-24 24-24L528 288l0-296c0-4.416-3.6-8-8-8L232.192-16C227.664-16 224-12.416 224-8l0 16c0 4.416-3.584 8-8 8S208 12.416 208 8l0-16c0-13.232 10.848-24 24.192-24L520-32c13.232 0 24 10.768 24 24l0 304c0 .368-.16.688-.208 1.04-.048.352-.112.656-.208.992-.368 1.376-.96 2.656-1.952 3.632l-111.984 111.984c-.976.992-2.272 1.584-3.648 1.952-.336.096-.624.144-.976.192C424.688 415.84 424.368 416 424 416l-80 0C339.584 416 336 412.416 336 408S339.584 400 344 400zM440 304c-4.4 0-8 3.584-8 8L432 388.688 516.688 304 440 304zM376 224l96 0c4.416 0 8 3.584 8 8S476.416 240 472 240l-96 0c-4.416 0-8-3.584-8-8S371.584 224 376 224zM376 160l96 0c4.416 0 8 3.584 8 8S476.416 176 472 176l-96 0c-4.416 0-8-3.584-8-8S371.584 160 376 160zM376 96l96 0c4.416 0 8 3.584 8 8S476.416 112 472 112l-96 0c-4.416 0-8-3.584-8-8S371.584 96 376 96zM376 32l96 0c4.416 0 8 3.584 8 8S476.416 48 472 48l-96 0c-4.416 0-8-3.584-8-8S371.584 32 376 32z" horiz-adv-x="544" unicode="&#xe006;"/><glyph d="M24-32l336 0c13.232 0 24 10.768 24 24L384 112c0 .16-.08.288-.096.448.88.56 1.792 1.088 2.656 1.68l127.776-127.776C515.904-15.216 517.952-16 520-16s4.096.784 5.664 2.336c3.12 3.12 3.12 8.192 0 11.312l-126.608 126.608C419.28 143.248 432 170.144 432 200c0 36.752-19.216 69.056-48.096 87.552C383.92 287.712 384 287.84 384 288L384 328c0 .272-.128.496-.144.752-.032.368-.128.688-.208 1.04-.272 1.136-.736 2.16-1.44 3.056-.112.144-.096.32-.208.464l-128 144c-.048.048-.112.048-.16.096-.96 1.04-2.192 1.728-3.568 2.144-.304.096-.576.128-.896.176C248.912 479.808 248.48 480 248 480l-224 0C10.768 480 0 469.232 0 456l0-464C0-21.232 10.768-32 24-32zM416 200c0-48.528-39.488-88-88-88S240 151.472 240 200s39.488 88 88 88S416 248.528 416 200zM256 450.96 358.192 336 264 336C260.48 336 256 342.72 256 348L256 450.96zM16 456C16 460.416 19.6 464 24 464L240 464l0-116C240 335.056 250.48 320 264 320L368 320l0-24.016C355.68 301.136 342.176 304 328 304c-29.408 0-55.936-12.32-74.864-32L88 272C83.584 272 80 268.416 80 264S83.584 256 88 256l152.512 0c-9.04-14.064-14.752-30.416-16.096-48L88 208C83.584 208 80 204.416 80 200S83.584 192 88 192l136.4 0c1.344-17.584 7.072-33.936 16.096-48L88 144C83.584 144 80 140.416 80 136S83.584 128 88 128l164 0c.336 0 .624.144.96.192C271.904 108.4 298.512 96 328 96c14.176 0 27.68 2.864 40 8.032L368-8c0-4.416-3.6-8-8-8l-336 0C19.52-16 16-12.48 16-8L16 456zM88 320l96 0c4.416 0 8 3.584 8 8S188.416 336 184 336l-96 0C83.584 336 80 332.416 80 328S83.584 320 88 320zM88 64l208 0c4.416 0 8 3.584 8 8S300.416 80 296 80l-208 0C83.584 80 80 76.416 80 72S83.584 64 88 64z" horiz-adv-x="528" unicode="&#xe007;"/><glyph d="M24-32l400 0c13.904 0 24 10.096 24 24l0 448C448 453.904 437.904 464 424 464l-64 0C355.584 464 352 460.416 352 456S355.584 448 360 448l64 0C429.008 448 432 445.008 432 440l0-448c0-5.008-2.992-8-8-8l-400 0C18.992-16 16-13.008 16-8l0 448C16 445.008 18.992 448 24 448l64 0C92.416 448 96 451.584 96 456S92.416 464 88 464l-64 0C10.096 464 0 453.904 0 440l0-448C0-21.904 10.096-32 24-32zM88 400C92.416 400 96 403.584 96 408S92.416 416 88 416l-32 0C51.584 416 48 412.416 48 408l0-384C48 19.584 51.584 16 56 16l336 0c4.416 0 8 3.584 8 8l0 384C400 412.416 396.416 416 392 416l-32 0C355.584 416 352 412.416 352 408S355.584 400 360 400L384 400l0-368L64 32 64 400 88 400zM144 368l160 0c19.44 0 32 12.56 32 32L336 472C336 476.416 332.416 480 328 480l-208 0C115.584 480 112 476.416 112 472L112 400C112 380.56 124.56 368 144 368zM128 464l192 0 0-64c0-10.624-5.392-16-16-16L144 384C133.392 384 128 389.376 128 400L128 464zM136 224l176 0c4.416 0 8 3.584 8 8S316.416 240 312 240l-176 0C131.584 240 128 236.416 128 232S131.584 224 136 224zM136 288l176 0c4.416 0 8 3.584 8 8S316.416 304 312 304l-176 0C131.584 304 128 300.416 128 296S131.584 288 136 288zM136 160l176 0c4.416 0 8 3.584 8 8S316.416 176 312 176l-176 0C131.584 176 128 172.416 128 168S131.584 160 136 160zM136 96l176 0c4.416 0 8 3.584 8 8S316.416 112 312 112l-176 0C131.584 112 128 108.416 128 104S131.584 96 136 96z" horiz-adv-x="448" unicode="&#xe008;"/><glyph d="M592 16c19.136 0 32 12.864 32 32L624 472C624 476.416 620.416 480 616 480S608 476.416 608 472L608 48c0-13.92-10.032-16-16-16-1.648 0-16 .448-16 16L576 472C576 476.416 572.416 480 568 480S560 476.416 560 472L560 48C560 26.992 576.096 16 592 16zM72 144l160 0c4.416 0 8 3.584 8 8l0 144c0 4.416-3.584 8-8 8l-160 0C67.584 304 64 300.416 64 296l0-144C64 147.584 67.584 144 72 144zM80 288l144 0 0-128L80 160 80 288zM72 352l384 0C460.416 352 464 355.584 464 360l0 64C464 428.416 460.416 432 456 432l-384 0C67.584 432 64 428.416 64 424l0-64C64 355.584 67.584 352 72 352zM80 416l368 0 0-48L80 368 80 416zM456 304l-160 0c-4.416 0-8-3.584-8-8s3.584-8 8-8l160 0c4.416 0 8 3.584 8 8S460.416 304 456 304zM456 256l-160 0c-4.416 0-8-3.584-8-8s3.584-8 8-8l160 0c4.416 0 8 3.584 8 8S460.416 256 456 256zM456 208l-160 0c-4.416 0-8-3.584-8-8s3.584-8 8-8l160 0c4.416 0 8 3.584 8 8S460.416 208 456 208zM456 160l-160 0c-4.416 0-8-3.584-8-8s3.584-8 8-8l160 0c4.416 0 8 3.584 8 8S460.416 160 456 160zM456 112l-160 0c-4.416 0-8-3.584-8-8s3.584-8 8-8l160 0c4.416 0 8 3.584 8 8S460.416 112 456 112zM72 96l160 0c4.416 0 8 3.584 8 8S236.416 112 232 112l-160 0C67.584 112 64 108.416 64 104S67.584 96 72 96zM456 64l-160 0c-4.416 0-8-3.584-8-8s3.584-8 8-8l160 0c4.416 0 8 3.584 8 8S460.416 64 456 64zM72 48l160 0c4.416 0 8 3.584 8 8S236.416 64 232 64l-160 0C67.584 64 64 60.416 64 56S67.584 48 72 48zM80-31.152l512 0c.128 0 .256 0 .32 0 .112 0 .208.064.32.064 43.344.352 78.528 35.664 78.528 79.088L671.168 472c0 3.952-3.2 7.152-7.152 7.152s-7.152-3.2-7.152-7.152L656.864 48c0-35.76-29.088-64.848-64.848-64.848S527.152 12.24 527.152 48L527.152 472c0 3.952-3.2 7.152-7.152 7.152l-512 0c-3.952 0-7.152-3.2-7.152-7.152L.848 48C.848 4.352 36.352-31.152 80-31.152zM15.152 464.848l497.68 0L512.832 48c0-4.896.592-9.648 1.44-14.32.176-.928.32-1.856.528-2.768.992-4.448 2.304-8.752 4.016-12.896.304-.752.672-1.456 1.008-2.192 1.728-3.872 3.728-7.6 6.048-11.12.272-.4.48-.832.752-1.232 2.528-3.68 5.408-7.088 8.496-10.288.672-.688 1.328-1.36 2.032-2.032 2.976-2.88 6.112-5.616 9.504-8L80-16.848c-35.744 0-64.848 29.088-64.848 64.848L15.152 464.848z" horiz-adv-x="672" unicode="&#xe009;"/><glyph d="M376-32c13.904 0 24 10.096 24 24l0 448C400 453.904 389.904 464 376 464l-320 0C42.096 464 32 453.904 32 440l0-18.672c0-4.416 3.584-8 8-8S48 416.912 48 421.328L48 440C48 445.008 50.992 448 56 448l72.992 0 0-464L56-16C50.992-16 48-13.008 48-8l0 14.672c0 4.416-3.584 8-8 8S32 11.088 32 6.672L32-8C32-21.904 42.096-32 56-32L376-32zM144 448l232 0C381.008 448 384 445.008 384 440l0-448c0-5.008-2.992-8-8-8L144-16 144 448zM432 8l0 416C432 428.416 428.416 432 424 432S416 428.416 416 424l0-416c0-4.416 3.584-8 8-8S432 3.584 432 8zM8 304l64 0C76.416 304 80 307.584 80 312S76.416 320 72 320l-64 0C3.584 320 0 316.416 0 312S3.584 304 8 304zM8 368l64 0C76.416 368 80 371.584 80 376S76.416 384 72 384l-64 0C3.584 384 0 380.416 0 376S3.584 368 8 368zM8 240l64 0C76.416 240 80 243.584 80 248S76.416 256 72 256l-64 0C3.584 256 0 252.416 0 248S3.584 240 8 240zM8 112l64 0C76.416 112 80 115.584 80 120S76.416 128 72 128l-64 0C3.584 128 0 124.416 0 120S3.584 112 8 112zM8 176l64 0C76.416 176 80 179.584 80 184S76.416 192 72 192l-64 0C3.584 192 0 188.416 0 184S3.584 176 8 176zM8 48l64 0C76.416 48 80 51.584 80 56S76.416 64 72 64l-64 0C3.584 64 0 60.416 0 56S3.584 48 8 48z" horiz-adv-x="432" unicode="&#xe00a;"/><glyph d="M600 464l-256 0c-6.352 0-11.84-2.176-16-5.792C323.84 461.824 318.352 464 312 464l-256 0C42.096 464 32 453.904 32 440l0-448C32-21.904 42.096-32 56-32l256 0c6.352 0 11.84 2.176 16 5.792 4.16-3.616 9.648-5.792 16-5.792l256 0c13.904 0 24 10.096 24 24l0 448C624 453.904 613.904 464 600 464zM312-16l-256 0C50.992-16 48-13.008 48-8l0 448C48 445.008 50.992 448 56 448l256 0C317.008 448 320 445.008 320 440l0-18.672 0-414.672 0-12.672L320-8C320-13.008 317.008-16 312-16zM608-8c0-5.008-2.992-8-8-8l-256 0c-5.008 0-8 2.992-8 8l0 2 0 12.672L336 421.328 336 440C336 445.008 338.992 448 344 448l256 0C605.008 448 608 445.008 608 440L608-8zM648 432C643.584 432 640 428.416 640 424l0-416c0-4.416 3.584-8 8-8s8 3.584 8 8l0 416C656 428.416 652.416 432 648 432zM8 0C12.416 0 16 3.584 16 8l0 416C16 428.416 12.416 432 8 432S0 428.416 0 424l0-416C0 3.584 3.584 0 8 0zM280 320l-192 0C83.584 320 80 316.416 80 312S83.584 304 88 304l192 0c4.416 0 8 3.584 8 8S284.416 320 280 320zM280 256l-192 0C83.584 256 80 252.416 80 248S83.584 240 88 240l192 0c4.416 0 8 3.584 8 8S284.416 256 280 256zM280 384l-192 0C83.584 384 80 380.416 80 376S83.584 368 88 368l192 0C284.416 368 288 371.584 288 376S284.416 384 280 384zM280 192l-192 0C83.584 192 80 188.416 80 184S83.584 176 88 176l192 0c4.416 0 8 3.584 8 8S284.416 192 280 192zM280 128l-192 0C83.584 128 80 124.416 80 120S83.584 112 88 112l192 0c4.416 0 8 3.584 8 8S284.416 128 280 128zM280 64l-192 0C83.584 64 80 60.416 80 56S83.584 48 88 48l192 0c4.416 0 8 3.584 8 8S284.416 64 280 64zM568 320l-192 0c-4.416 0-8-3.584-8-8s3.584-8 8-8l192 0c4.416 0 8 3.584 8 8S572.416 320 568 320zM568 256l-192 0c-4.416 0-8-3.584-8-8s3.584-8 8-8l192 0c4.416 0 8 3.584 8 8S572.416 256 568 256zM568 384l-192 0C371.584 384 368 380.416 368 376S371.584 368 376 368l192 0C572.416 368 576 371.584 576 376S572.416 384 568 384zM568 192l-192 0c-4.416 0-8-3.584-8-8s3.584-8 8-8l192 0c4.416 0 8 3.584 8 8S572.416 192 568 192zM568 128l-192 0c-4.416 0-8-3.584-8-8s3.584-8 8-8l192 0c4.416 0 8 3.584 8 8S572.416 128 568 128zM568 64l-192 0c-4.416 0-8-3.584-8-8s3.584-8 8-8l192 0c4.416 0 8 3.584 8 8S572.416 64 568 64z" horiz-adv-x="672" unicode="&#xe00b;"/><glyph d="M664 320c-4.416 0-8-3.584-8-8l0-320c0-4.416-3.584-8-8-8l-624 0C19.584-16 16-12.416 16-8l0 320C16 316.416 12.416 320 8 320S0 316.416 0 312l0-320C0-21.232 10.768-32 24-32l624 0c13.232 0 24 10.768 24 24l0 320C672 316.416 668.416 320 664 320zM648 480l-624 0C10.768 480 0 469.232 0 456l0-96C0 355.584 3.584 352 8 352l656 0C668.416 352 672 355.584 672 360l0 96C672 469.232 661.232 480 648 480zM656 368 16 368 16 456C16 460.416 19.584 464 24 464l624 0C652.416 464 656 460.416 656 456L656 368zM280 32c4.416 0 8 3.584 8 8l0 256c0 4.416-3.584 8-8 8l-208 0C67.584 304 64 300.416 64 296l0-256C64 35.584 67.584 32 72 32L280 32zM80 288l192 0 0-240L80 48 80 288zM360 240l240 0c4.416 0 8 3.584 8 8S604.416 256 600 256l-240 0c-4.416 0-8-3.584-8-8S355.584 240 360 240zM360 160l240 0c4.416 0 8 3.584 8 8S604.416 176 600 176l-240 0c-4.416 0-8-3.584-8-8S355.584 160 360 160zM360 80l240 0c4.416 0 8 3.584 8 8S604.416 96 600 96l-240 0c-4.416 0-8-3.584-8-8S355.584 80 360 80zM48 416A16 16 180 1 1 80 416 16 16 180 1 1 48 416zM112 416A16 16 180 1 1 144 416 16 16 180 1 1 112 416zM176 416A16 16 180 1 1 208 416 16 16 180 1 1 176 416z" horiz-adv-x="672" unicode="&#xe00c;"/><glyph d="M544-8l0 304c0 4.416-3.584 8-8 8S528 300.416 528 296l0-304c0-4.416-3.584-8-8-8l-496 0C19.584-16 16-12.416 16-8l0 304C16 300.416 12.416 304 8 304S0 300.416 0 296l0-304C0-21.232 10.768-32 24-32l496 0C533.232-32 544-21.232 544-8zM72 112C67.584 112 64 108.416 64 104S67.584 96 72 96L96 96l0-56C96 35.584 99.584 32 104 32S112 35.584 112 40L112 96l96 0 0-56c0-4.416 3.584-8 8-8s8 3.584 8 8L224 96l96 0 0-56c0-4.416 3.584-8 8-8s8 3.584 8 8L336 96l96 0 0-56c0-4.416 3.584-8 8-8s8 3.584 8 8L448 96l24 0c4.416 0 8 3.584 8 8S476.416 112 472 112L448 112l0 80 24 0c4.416 0 8 3.584 8 8S476.416 208 472 208L448 208l0 72c0 4.416-3.584 8-8 8S432 284.416 432 280L432 208l-96 0 0 72c0 4.416-3.584 8-8 8S320 284.416 320 280L320 208l-96 0 0 72c0 4.416-3.584 8-8 8S208 284.416 208 280L208 208 112 208l0 72C112 284.416 108.416 288 104 288S96 284.416 96 280L96 208 72 208C67.584 208 64 204.416 64 200S67.584 192 72 192L96 192l0-80L72 112zM432 192l0-80-96 0 0 80L432 192zM320 192l0-80-96 0 0 80L320 192zM112 192l96 0 0-80L112 112 112 192zM456 432l68 0C525.392 432 528 432 528 424L528 352 16 352 16 424C16 428.416 19.584 432 24 432l64 0C92.416 432 96 435.584 96 440S92.416 448 88 448l-64 0C10.768 448 0 437.232 0 424l0-80C0 339.584 3.584 336 8 336l528 0C540.416 336 544 339.584 544 344l0 80C544 441.696 533.664 448 524 448L456 448C451.584 448 448 444.416 448 440S451.584 432 456 432zM360 432C364.416 432 368 435.584 368 440S364.416 448 360 448l-176 0C179.584 448 176 444.416 176 440S179.584 432 184 432L360 432zM144 408l0 64C144 476.416 140.416 480 136 480S128 476.416 128 472l0-64C128 403.584 131.584 400 136 400S144 403.584 144 408zM408 400C412.416 400 416 403.584 416 408l0 64C416 476.416 412.416 480 408 480S400 476.416 400 472l0-64C400 403.584 403.584 400 408 400z" horiz-adv-x="544" unicode="&#xe00d;"/><glyph d="M8 432C3.584 432 0 428.416 0 424l0-272C0 138.768 10.768 128 24 128l448 0c13.232 0 24 10.768 24 24l0 272C496 428.416 492.416 432 488 432S480 428.416 480 424l0-272c0-4.416-3.584-8-8-8l-448 0C19.584 144 16 147.584 16 152l0 272C16 428.416 12.416 432 8 432zM520 480l-544 0C-28.416 480-32 476.416-32 472S-28.416 464-24 464l544 0C524.416 464 528 467.584 528 472S524.416 480 520 480zM189.664 349.664c-2.928 2.928-7.6 3.136-10.784.496l-96-80c-3.392-2.832-3.856-7.872-1.024-11.28 2.832-3.392 7.856-3.856 11.28-1.024l90.384 75.328 90.832-90.832C275.904 240.784 277.952 240 280 240s4.096.784 5.664 2.336L400 356.688 400 296c0-4.416 3.584-8 8-8s8 3.584 8 8l0 80c0 1.04-.208 2.08-.608 3.056-.816 1.952-2.368 3.52-4.336 4.336C410.08 383.792 409.04 384 408 384l-80 0C323.584 384 320 380.416 320 376S323.584 368 328 368l60.688 0L280 259.312 189.664 349.664zM128.912-27.712c2.048-3.92 6.88-5.424 10.8-3.376l108.288 56.72 108.288-56.72C357.472-31.712 358.736-32 360-32c2.88 0 5.664 1.568 7.088 4.288 2.048 3.92.544 8.752-3.376 10.8l-110.288 57.76C254.992 42.304 256 44.352 256 46.672L256 88c0 4.416-3.584 8-8 8S240 92.416 240 88l0-41.328c0-2.304 1.008-4.352 2.576-5.808l-110.288-57.76C128.368-18.96 126.864-23.792 128.912-27.712z" horiz-adv-x="496" unicode="&#xe00e;"/><glyph d="M24-32l464 0c13.232 0 24 10.768 24 24l0 464C512 469.232 501.232 480 488 480l-464 0C10.768 480 0 469.232 0 456l0-464C0-21.232 10.768-32 24-32zM16 456C16 460.416 19.6 464 24 464l464 0C492.4 464 496 460.416 496 456l0-464c0-4.416-3.6-8-8-8l-464 0C19.6-16 16-12.416 16-8L16 456zM328 280c17.648 0 32 14.352 32 32s-14.352 32-32 32-32-14.352-32-32S310.352 280 328 280zM328 328c8.832 0 16-7.184 16-16s-7.168-16-16-16-16 7.184-16 16S319.168 328 328 328zM72 80l368 0c4.416 0 8 3.584 8 8l0 320C448 412.416 444.416 416 440 416l-368 0C67.584 416 64 412.416 64 408l0-320C64 83.584 67.584 80 72 80zM80 96l0 90.208c.352.256.752.4 1.072.72l81.856 81.856c4.16 4.16 11.392 4.144 15.552 0l120.336-120.336c1.568-1.568 3.616-2.336 5.664-2.336 1.984 0 3.968.736 5.52 2.208l61.856 58.752c2.08 2.08 4.848 3.232 7.776 3.232 2.944 0 5.68-1.152 7.536-2.992l44.832-48.832c0 0 .016 0 .016-.016L432.016 96 80 96zM432 400l0-217.888-33.296 36.256c-5.072 5.104-11.856 7.92-19.056 7.92-.016 0-.016 0-.016 0-7.216 0-14-2.816-18.96-7.776l-56.064-53.248-114.816 114.832c-10.224 10.208-27.984 10.192-38.176 0L80 208.464 80 400 432 400z" unicode="&#xe00f;"/><glyph d="M24 32l416 0c13.232 0 24 10.768 24 24l0 400C464 469.232 453.232 480 440 480l-416 0C10.768 480 0 469.232 0 456l0-400C0 42.768 10.768 32 24 32zM16 456C16 460.416 19.6 464 24 464l416 0C444.4 464 448 460.416 448 456l0-400c0-4.416-3.6-8-8-8l-416 0C19.6 48 16 51.584 16 56L16 456zM288 304c17.648 0 32 14.352 32 32s-14.352 32-32 32-32-14.352-32-32S270.352 304 288 304zM288 352c8.832 0 16-7.184 16-16s-7.168-16-16-16-16 7.184-16 16S279.168 352 288 352zM56 112l352 0c4.416 0 8 3.584 8 8l0 304C416 428.416 412.416 432 408 432l-352 0C51.584 432 48 428.416 48 424l0-304C48 115.584 51.584 112 56 112zM64 128l0 74.208c.352.256.752.4 1.072.72l81.856 81.856c4.16 4.16 11.392 4.144 15.552 0l120.336-120.336c1.568-1.568 3.616-2.336 5.664-2.336 1.984 0 3.968.736 5.52 2.208l61.856 58.752c2.08 2.08 4.848 3.232 7.776 3.232 2.944 0 5.68-1.152 7.424-2.848L400 190.512 400 128 64 128zM400 416l0-201.296-17.296 19.648c-5.072 5.104-11.856 7.92-19.056 7.92-.016 0-.016 0-.016 0-7.216 0-14-2.816-18.96-7.776l-56.064-53.248-114.816 114.832c-10.224 10.208-27.984 10.192-38.176 0L64 224.464 64 416 400 416zM72 14.672c-4.416 0-8-3.584-8-8L64-8C64-21.232 74.768-32 88-32l416 0c13.232 0 24 10.768 24 24l0 416C528 421.232 517.232 432 504 432l-14.672 0c-4.416 0-8-3.584-8-8s3.584-8 8-8L504 416C508.4 416 512 412.416 512 408l0-416c0-4.416-3.6-8-8-8l-416 0C83.6-16 80-12.416 80-8l0 14.672C80 11.088 76.416 14.672 72 14.672z" horiz-adv-x="528" unicode="&#xe010;"/><glyph d="M120 480l-96 0C10.096 480 0 469.904 0 456l0-464C0-21.904 10.096-32 24-32l96 0 352 0 96 0c13.904 0 24 10.096 24 24l0 464C592 469.904 581.904 480 568 480l-96 0L120 480zM16-8l0 464C16 461.008 18.992 464 24 464L112 464l0-480L24-16C18.992-16 16-13.008 16-8zM128-16 128 464l336 0 0-480L128-16zM576 456l0-464c0-5.008-2.992-8-8-8L480-16 480 464l88 0C573.008 464 576 461.008 576 456zM236.432 318.656c-2.448 1.632-5.616 1.792-8.224.4C225.632 317.664 224 314.96 224 312l0-192c0-2.96 1.632-5.664 4.224-7.056C229.408 112.32 230.704 112 232 112c1.552 0 3.088.448 4.432 1.344l144 96C382.656 210.832 384 213.328 384 216s-1.344 5.168-3.568 6.656L236.432 318.656zM240 134.944 240 297.056l121.584-81.056L240 134.944zM80 352 48 352C43.584 352 40 348.416 40 344S43.584 336 48 336l32 0c4.416 0 8 3.584 8 8S84.416 352 80 352zM48 400l32 0c4.416 0 8 3.584 8 8S84.416 416 80 416L48 416C43.584 416 40 412.416 40 408S43.584 400 48 400zM80 288 48 288c-4.416 0-8-3.584-8-8S43.584 272 48 272l32 0c4.416 0 8 3.584 8 8S84.416 288 80 288zM80 224 48 224c-4.416 0-8-3.584-8-8S43.584 208 48 208l32 0c4.416 0 8 3.584 8 8S84.416 224 80 224zM80 160 48 160c-4.416 0-8-3.584-8-8S43.584 144 48 144l32 0c4.416 0 8 3.584 8 8S84.416 160 80 160zM80 96 48 96c-4.416 0-8-3.584-8-8S43.584 80 48 80l32 0c4.416 0 8 3.584 8 8S84.416 96 80 96zM80 32 48 32c-4.416 0-8-3.584-8-8S43.584 16 48 16l32 0c4.416 0 8 3.584 8 8S84.416 32 80 32zM512 336l32 0c4.416 0 8 3.584 8 8S548.416 352 544 352l-32 0c-4.416 0-8-3.584-8-8S507.584 336 512 336zM512 400l32 0c4.416 0 8 3.584 8 8S548.416 416 544 416l-32 0c-4.416 0-8-3.584-8-8S507.584 400 512 400zM512 272l32 0c4.416 0 8 3.584 8 8S548.416 288 544 288l-32 0c-4.416 0-8-3.584-8-8S507.584 272 512 272zM512 208l32 0c4.416 0 8 3.584 8 8S548.416 224 544 224l-32 0c-4.416 0-8-3.584-8-8S507.584 208 512 208zM512 144l32 0c4.416 0 8 3.584 8 8S548.416 160 544 160l-32 0c-4.416 0-8-3.584-8-8S507.584 144 512 144zM512 80l32 0c4.416 0 8 3.584 8 8S548.416 96 544 96l-32 0c-4.416 0-8-3.584-8-8S507.584 80 512 80zM544 32l-32 0c-4.416 0-8-3.584-8-8S507.584 16 512 16l32 0c4.416 0 8 3.584 8 8S548.416 32 544 32z" horiz-adv-x="592" unicode="&#xe011;"/><glyph d="M632 384 512 384c-30.832 0-31.968 28.752-32 32L480 432c0 20.128-22.24 48-64 48l-159.504 0c-46.96 0-64-28.704-64-48l0-15.904C192.48 414.784 191.728 384 160 384L40 384C17.936 384 0 366.048 0 344l0-288C0 33.952 17.936 16 40 16l96 0C140.416 16 144 19.584 144 24S140.416 32 136 32l-96 0C26.768 32 16 42.768 16 56L16 256l128 0c-10.304-24.64-16-51.664-16-80 0-114.688 93.312-208 208-208s208 93.312 208 208c0 28.336-5.744 55.36-16.048 80L656 256l0-200c0-13.232-10.768-24-24-24l-112 0c-4.416 0-8-3.584-8-8s3.584-8 8-8l112 0c22.064 0 40 17.952 40 40l0 288C672 366.048 654.064 384 632 384zM336-16c-105.872 0-192 86.128-192 192S230.128 368 336 368s192-86.128 192-192S441.872-16 336-16zM524 272c-1.184 0-2.288-.288-3.296-.752C486.08 338.112 416.352 384 336 384s-150.08-45.888-184.704-112.752C150.288 271.712 149.184 272 148 272L16 272 16 344C16 357.232 26.768 368 40 368L160 368c37.888 0 48.304 31.328 48.496 48L208.496 432c0 12.864 12.784 32 48 32L416 464c33.504 0 48-21.184 48-32l0-16c0-16.608 10.032-48 48-48l120 0C645.232 368 656 357.232 656 344L656 272 524 272zM152 400C156.416 400 160 403.584 160 408l0 16C160 437.232 149.232 448 136 448l-64 0C58.768 448 48 437.232 48 424l0-16C48 403.584 51.584 400 56 400S64 403.584 64 408l0 16C64 428.416 67.6 432 72 432l64 0C140.4 432 144 428.416 144 424l0-16C144 403.584 147.584 400 152 400zM336 320c-79.408 0-144-64.608-144-144s64.592-144 144-144 144 64.608 144 144S415.408 320 336 320zM336 48c-70.576 0-128 57.424-128 128s57.424 128 128 128 128-57.424 128-128S406.576 48 336 48z" horiz-adv-x="672" unicode="&#xe012;"/><glyph d="M648 320 608 320 608 376C608 389.232 597.232 400 584 400l-32 0C547.584 400 544 396.416 544 392S547.584 384 552 384l32 0C588.4 384 592 380.416 592 376L592 320l-64 0L528 472C528 476.416 524.416 480 520 480l-368 0C147.584 480 144 476.416 144 472L144 320 80 320 80 376C80 380.416 83.6 384 88 384l32 0C124.416 384 128 387.584 128 392S124.416 400 120 400l-32 0C74.768 400 64 389.232 64 376L64 320 24 320C10.768 320 0 309.232 0 296l0-224C0 58.768 10.768 48 24 48l96 0C124.416 48 128 51.584 128 56S124.416 64 120 64l-96 0C19.6 64 16 67.584 16 72L16 128l640 0 0-56c0-4.416-3.6-8-8-8l-96 0c-4.416 0-8-3.584-8-8s3.584-8 8-8l96 0c13.232 0 24 10.768 24 24l0 224C672 309.232 661.232 320 648 320zM160 464l352 0 0-144L160 320 160 464zM16 144l0 152C16 300.416 19.6 304 24 304l624 0c4.4 0 8-3.584 8-8L656 144 16 144zM520 112c-4.416 0-8-3.584-8-8L512-16 160-16l0 120c0 4.416-3.584 8-8 8S144 108.416 144 104l0-48 0-80C144-28.416 147.584-32 152-32l368 0c4.416 0 8 3.584 8 8l0 80 0 48C528 108.416 524.416 112 520 112zM592 192A16 16 180 1 1 624 192 16 16 180 1 1 592 192zM528 192A16 16 180 1 1 560 192 16 16 180 1 1 528 192z" horiz-adv-x="672" unicode="&#xe013;"/><glyph d="M664 208c-4.416 0-8-3.584-8-8l0-208c0-4.416-3.584-8-8-8l-624 0C19.584-16 16-12.416 16-8l0 208C16 204.416 12.416 208 8 208S0 204.416 0 200l0-208C0-21.232 10.768-32 24-32l624 0c13.232 0 24 10.768 24 24l0 208C672 204.416 668.416 208 664 208zM648 368l-624 0C10.768 368 0 357.232 0 344l0-96C0 243.584 3.584 240 8 240L224 240l0-56c0-13.232 10.768-24 24-24l176 0c13.232 0 24 10.768 24 24L448 240l216 0c4.416 0 8 3.584 8 8l0 96C672 357.232 661.232 368 648 368zM432 184c0-4.416-3.584-8-8-8l-176 0c-4.416 0-8 3.584-8 8L240 240l192 0L432 184zM656 256 16 256 16 344C16 348.416 19.584 352 24 352l624 0C652.416 352 656 348.416 656 344L656 256zM248 480C234.768 480 224 469.232 224 456l0-64C224 387.584 227.584 384 232 384S240 387.584 240 392l0 64C240 460.416 243.584 464 248 464l176 0C428.416 464 432 460.416 432 456l0-64C432 387.584 435.584 384 440 384S448 387.584 448 392l0 64C448 469.232 437.232 480 424 480L248 480z" horiz-adv-x="672" unicode="&#xe014;"/><glyph d="M600 192c-4.416 0-8-3.584-8-8l0-192c0-4.416-3.584-8-8-8l-560 0C19.584-16 16-12.416 16-8l0 192C16 188.416 12.416 192 8 192S0 188.416 0 184l0-192C0-21.232 10.768-32 24-32l560 0c13.232 0 24 10.768 24 24l0 192C608 188.416 604.416 192 600 192zM408 400C412.416 400 416 403.584 416 408l0 48C416 469.232 405.232 480 392 480l-176 0C202.768 480 192 469.232 192 456l0-48C192 403.584 195.584 400 200 400S208 403.584 208 408l0 48C208 460.416 211.584 464 216 464l176 0C396.416 464 400 460.416 400 456l0-48C400 403.584 403.584 400 408 400zM584 368l-560 0C10.768 368 0 357.232 0 344l0-79.328c0-44.448 151.296-104 306-104 152.688 0 302 59.552 302 104L608 344C608 357.232 597.232 368 584 368zM592 264.672c0-28.224-135.312-88-286-88C153.2 176.672 16 236.432 16 264.672L16 344C16 348.416 19.584 352 24 352l560 0C588.416 352 592 348.416 592 344L592 264.672zM306 112c15.088 0 30.768.624 46.624 1.856 4.4.336 7.696 4.192 7.344 8.608-.336 4.4-4.032 7.776-8.608 7.344-32.224-2.512-62.544-2.4-94.704.32-4.224.432-8.272-2.896-8.64-7.296-.368-4.4 2.896-8.272 7.296-8.64C272.528 112.736 289.584 112 306 112z" horiz-adv-x="608" unicode="&#xe015;"/><glyph d="M520.144 360c4.416 0 8 3.584 8 8L528.144 394.64c0 14.448-11.76 26.208-26.208 26.208l-42.992 0-9.808 28.944c-1.376 4.08-5.76 6.352-9.904 5.088L206.384 384.096c-4.224-1.296-6.608-5.76-5.328-9.984 1.056-3.456 4.224-5.664 7.664-5.664.768 0 1.552.112 2.336.336L436.48 437.328l21.488-63.44c1.424-4.192 6-6.464 10.144-5.008 4.192 1.408 6.432 5.968 5.008 10.144l-8.752 25.84 37.584 0c5.632 0 10.208-4.576 10.208-10.208L512.16 368C512.144 363.584 515.728 360 520.144 360zM584 240c-4.416 0-8-3.584-8-8s3.584-8 8-8c5.616 0 8-2.384 8-8l0-96c0-5.616-2.384-8-8-8l-128 0c-5.616 0-8 2.384-8 8l0 80c0 5.616 2.384 8 8 8l96 0c4.416 0 8 3.584 8 8l0 96C560 326.576 550.576 336 536 336L48 336C28.272 336 16 348.272 16 368s12.272 32 32 32l81.216 0L80.8 384.032C76.608 382.656 74.32 378.128 75.696 373.936c1.104-3.36 4.24-5.488 7.6-5.488.832 0 1.664.128 2.512.4l289.904 95.568c4.192 1.392 6.48 5.904 5.088 10.112-1.376 4.192-5.904 6.48-10.112 5.088L177.088 415.776C176.72 415.84 176.384 416 176 416L48 416C19.296 416 0 396.704 0 368l0-352c0-28.704 19.296-48 48-48l488 0c14.576 0 24 9.424 24 24l0 80c0 4.416-3.584 8-8 8S544 76.416 544 72l0-80c0-5.616-2.384-8-8-8L48-16c-19.728 0-32 12.272-32 32L16 331.008C24.208 324.08 35.072 320 48 320l488 0c5.616 0 8-2.384 8-8L544 224l-88 0c-14.576 0-24-9.424-24-24l0-80c0-14.576 9.424-24 24-24l128 0c14.576 0 24 9.424 24 24l0 96C608 230.576 598.576 240 584 240zM496 160A16 16 180 1 1 528 160 16 16 180 1 1 496 160z" horiz-adv-x="608" unicode="&#xe016;"/><glyph d="M24 208C19.584 208 16 204.416 16 200l0-192C16-5.232 26.768-16 40-16l160 0c4.416 0 8 3.584 8 8S204.416 0 200 0l-160 0C35.584 0 32 3.584 32 8l0 192C32 204.416 28.416 208 24 208zM648 208c-4.416 0-8-3.584-8-8l0-192c0-4.416-3.584-8-8-8l-336 0c-4.416 0-8-3.584-8-8s3.584-8 8-8l336 0c13.232 0 24 10.768 24 24l0 192C656 204.416 652.416 208 648 208zM288 456C288 451.584 291.584 448 296 448l336 0C636.416 448 640 444.416 640 440l0-143.328c0-4.416 3.584-8 8-8s8 3.584 8 8L656 440C656 453.232 645.232 464 632 464l-336 0C291.584 464 288 460.416 288 456zM40 464C26.768 464 16 453.232 16 440l0-143.328c0-4.416 3.584-8 8-8s8 3.584 8 8L32 440C32 444.416 35.584 448 40 448l160 0C204.416 448 208 451.584 208 456S204.416 464 200 464L40 464zM664 256.672 337.6 256.672c6.352 2.816 11.84 6.096 15.744 10 24.176 24.176 24.176 63.504 0 87.68-23.424 23.424-64.256 23.424-87.68 0C261.904 350.592 258.752 345.344 256 339.312L256 472C256 476.416 252.416 480 248 480S240 476.416 240 472l0-211.6c-27.248 11.232-75.216 34.304-85.056 54.192-6.4 12.928-7.376 27.552-2.768 41.216 4.624 13.664 14.272 24.688 27.184 31.088 3.968 1.968 5.584 6.752 3.632 10.72-1.984 3.968-6.752 5.6-10.72 3.632-16.752-8.288-29.264-22.608-35.248-40.32C131.04 343.216 132.32 324.24 140.608 307.504c9.68-19.552 42.08-38.256 68.4-50.832L8 256.672c-4.416 0-8-3.584-8-8s3.584-8 8-8l149.536 0c-6.192-2.784-11.552-6-15.376-9.824-24.176-24.176-24.176-63.504 0-87.68 11.712-11.712 27.28-18.16 43.84-18.16s32.128 6.448 43.84 18.16c3.968 3.968 7.296 9.584 10.16 16.08L240-24c0-4.416 3.584-8 8-8s8 3.584 8 8L256 236.88c27.328-11.296 74.768-34.208 84.56-53.984 6.4-12.928 7.376-27.552 2.768-41.216-4.624-13.664-14.272-24.688-27.184-31.088-3.968-1.968-5.584-6.752-3.632-10.72 1.392-2.816 4.24-4.448 7.184-4.448 1.184 0 2.4.272 3.536.832 16.752 8.288 29.264 22.608 35.248 40.32 5.984 17.712 4.704 36.672-3.584 53.424-9.632 19.456-41.776 38.08-68.032 50.672L664 240.672c4.416 0 8 3.584 8 8S668.416 256.672 664 256.672zM276.976 343.024c8.688 8.688 20.24 13.472 32.528 13.472s23.84-4.784 32.528-13.472c17.936-17.936 17.936-47.12 0-65.056-13.664-13.664-60.64-19.232-85.872-20.8C257.952 286.992 264.512 330.56 276.976 343.024zM218.528 154.48c-17.376-17.376-47.68-17.376-65.056 0-17.936 17.936-17.936 47.12 0 65.056 13.664 13.664 60.64 19.232 85.872 20.8C237.552 210.512 230.992 166.944 218.528 154.48z" horiz-adv-x="672" unicode="&#xe017;"/><glyph d="M416 312l0-320c0-2.816.576-5.488 1.472-8l-50.944 0C367.424-13.488 368-10.816 368-8l0 464C368 469.232 357.232 480 344 480l-112 0C218.768 480 208 469.232 208 456l0-464c0-2.816.576-5.488 1.472-8L158.528-16C159.424-13.488 160-10.816 160-8l0 176c0 13.232-10.768 24-24 24l-112 0C10.768 192 0 181.232 0 168l0-176C0-21.232 10.768-32 24-32L80-32l56 0 96 0 112 0 96 0 112 0c13.232 0 24 10.768 24 24l0 320C576 325.232 565.232 336 552 336l-112 0C426.768 336 416 325.232 416 312zM80-16 24-16C19.6-16 16-12.416 16-8l0 176C16 172.416 19.6 176 24 176l112 0C140.4 176 144 172.416 144 168l0-176C144-12.416 140.4-16 136-16L80-16zM232-16c-4.4 0-8 3.584-8 8l0 464C224 460.416 227.6 464 232 464l112 0C348.4 464 352 460.416 352 456l0-464c0-4.416-3.6-8-8-8L232-16zM560 312l0-320c0-4.416-3.6-8-8-8l-112 0c-4.4 0-8 3.584-8 8l0 320c0 4.416 3.6 8 8 8l112 0C556.4 320 560 316.416 560 312z" horiz-adv-x="576" unicode="&#xe018;"/><glyph d="M456 304c4.416 0 8 3.584 8 8S460.416 320 456 320L336 320 336 440C336 444.416 332.416 448 328 448S320 444.416 320 440L320 320l-144 0L176 440C176 444.416 172.416 448 168 448S160 444.416 160 440L160 320 40 320C35.584 320 32 316.416 32 312S35.584 304 40 304L160 304l0-144L40 160C35.584 160 32 156.416 32 152S35.584 144 40 144L160 144l0-136c0-4.416 3.584-8 8-8s8 3.584 8 8L176 144l144 0 0-136c0-4.416 3.584-8 8-8s8 3.584 8 8L336 144l120 0c4.416 0 8 3.584 8 8S460.416 160 456 160L336 160l0 144L456 304zM320 160l-144 0 0 144 144 0L320 160zM496-8l0 464C496 469.232 485.232 480 472 480l-448 0C10.768 480 0 469.232 0 456l0-464C0-21.232 10.768-32 24-32l448 0C485.232-32 496-21.232 496-8zM16-8l0 464C16 460.416 19.6 464 24 464l448 0C476.4 464 480 460.416 480 456l0-464c0-4.416-3.6-8-8-8l-448 0C19.6-16 16-12.416 16-8z" horiz-adv-x="496" unicode="&#xe019;"/><glyph d="M512-8l0 464C512 469.232 501.232 480 488 480l-464 0C10.768 480 0 469.232 0 456l0-144C0 307.584 3.584 304 8 304S16 307.584 16 312l0 144C16 460.416 19.6 464 24 464l464 0C492.4 464 496 460.416 496 456l0-464c0-4.416-3.6-8-8-8l-144 0c-4.416 0-8-3.584-8-8s3.584-8 8-8l144 0C501.232-32 512-21.232 512-8zM24 272C10.768 272 0 261.232 0 248l0-256C0-21.232 10.768-32 24-32l256 0c13.232 0 24 10.768 24 24L304 260.688l112 112L416 264c0-4.416 3.584-8 8-8s8 3.584 8 8l0 128C432 396.416 428.416 400 424 400l-128 0C291.584 400 288 396.416 288 392S291.584 384 296 384l108.672 0-112-112L24 272zM288-8c0-4.416-3.6-8-8-8l-256 0C19.6-16 16-12.416 16-8l0 256C16 252.416 19.6 256 24 256L288 256 288-8z" unicode="&#xe01a;"/><glyph d="M136 480l-112 0C10.768 480 0 469.232 0 456l0-96C0 355.584 3.584 352 8 352S16 355.584 16 360l0 96C16 460.416 19.6 464 24 464l112 0C140.416 464 144 467.584 144 472S140.416 480 136 480zM648 480l-112 0C531.584 480 528 476.416 528 472S531.584 464 536 464l112 0C652.4 464 656 460.416 656 456l0-96C656 355.584 659.584 352 664 352S672 355.584 672 360l0 96C672 469.232 661.232 480 648 480zM664 96c-4.416 0-8-3.584-8-8l0-96c0-4.416-3.6-8-8-8l-112 0c-4.416 0-8-3.584-8-8s3.584-8 8-8l112 0c13.232 0 24 10.768 24 24l0 96C672 92.416 668.416 96 664 96zM8 96C3.584 96 0 92.416 0 88l0-96C0-21.232 10.768-32 24-32l112 0C140.416-32 144-28.416 144-24S140.416-16 136-16l-112 0C19.6-16 16-12.416 16-8l0 96C16 92.416 12.416 96 8 96zM376 176c4.416 0 8 3.584 8 8l0 80c0 4.416-3.584 8-8 8l-80 0c-4.416 0-8-3.584-8-8l0-80c0-4.416 3.584-8 8-8L376 176zM304 256l64 0 0-64-64 0L304 256z" horiz-adv-x="672" unicode="&#xe01b;"/><glyph d="M24-32l464 0c13.232 0 24 10.768 24 24l0 464C512 469.232 501.232 480 488 480l-464 0C10.768 480 0 469.232 0 456l0-464C0-21.232 10.768-32 24-32zM16 456C16 460.416 19.6 464 24 464l464 0C492.4 464 496 460.416 496 456l0-464c0-4.416-3.6-8-8-8l-464 0C19.6-16 16-12.416 16-8L16 456zM64 24.336c.768 0 1.536.112 2.288.336l160 47.664c1.296.384 2.464 1.088 3.408 2.032l161.44 163.28c.368.384.56.848.832 1.28l58.528 58.528c9.712 9.712 9.712 25.52 0 35.248L366.72 416.448c-9.712 9.712-25.52 9.728-35.232 0l-59.824-59.824c-.384-.384-.576-.864-.864-1.296L108.912 193.424c-.896-.896-1.568-1.984-1.952-3.184l-50.56-155.44c-.928-2.832-.192-5.936 1.872-8.064C59.792 25.184 61.872 24.336 64 24.336zM277.744 339.664l16.64-16.64-136.368-137.008-27.632 6.272L277.744 339.664zM168 173.36l137.712 138.336 38.944-38.944L204.736 136 168 136 168 173.36zM374.16 243.248l-147.936-149.632-9.216 31.984 138.944 135.824L374.16 243.248zM119.888 178.256 152 170.96 152 128c0-4.416 3.584-8 8-8l41.984 0 10.128-35.2-135.792-40.448L119.888 178.256zM342.8 405.136c3.488 3.472 9.152 3.456 12.608 0l83.76-83.76c3.488-3.472 3.488-9.136 0-12.624l-53.952-53.952-96.368 96.368L342.8 405.136z" unicode="&#xe01c;"/><glyph d="M496 480 32 480C18.848 480 0 461.152 0 448l0-448c0-13.152 18.848-32 32-32l464 0c13.152 0 32 18.848 32 32L528 448C528 461.152 509.152 480 496 480zM512 0c-.096-4.544-11.456-15.904-16-16L32-16c-4.544.096-15.904 11.456-16 16L16 448c.096 4.544 11.456 15.904 16 16l464 0c4.544-.096 15.904-11.456 16-16L512 0zM264 392c-17.648 0-32-14.352-32-32s14.352-32 32-32 32 14.352 32 32S281.648 392 264 392zM264 344c-8.816 0-16 7.184-16 16s7.184 16 16 16 16-7.184 16-16S272.816 344 264 344zM392 136c-17.648 0-32-14.352-32-32s14.352-32 32-32 32 14.352 32 32S409.648 136 392 136zM392 88c-8.816 0-16 7.184-16 16s7.184 16 16 16 16-7.184 16-16S400.816 88 392 88zM136 216c-17.648 0-32-14.352-32-32s14.352-32 32-32 32 14.352 32 32S153.648 216 136 216zM136 168c-8.816 0-16 7.184-16 16s7.184 16 16 16 16-7.184 16-16S144.816 168 136 168zM136 240C140.416 240 144 243.584 144 248l0 144C144 396.416 140.416 400 136 400S128 396.416 128 392l0-144C128 243.584 131.584 240 136 240zM136 128C131.584 128 128 124.416 128 120l0-48C128 67.584 131.584 64 136 64S144 67.584 144 72l0 48C144 124.416 140.416 128 136 128zM264 304c-4.416 0-8-3.584-8-8l0-224c0-4.416 3.584-8 8-8s8 3.584 8 8l0 224C272 300.416 268.416 304 264 304zM392 160c4.416 0 8 3.584 8 8l0 224C400 396.416 396.416 400 392 400S384 396.416 384 392l0-224C384 163.584 387.584 160 392 160z" horiz-adv-x="528" unicode="&#xe01d;"/><glyph d="M24 336C19.584 336 16 332.416 16 328l0-335.136c0-10.64 5.056-16.624 9.312-19.76C30.4-30.672 36.384-32 41.728-32c3.216 0 6.192.48 8.608 1.232 46.864 14.32 149.52 119.712 175.568 147.04 25.392-27.488 124.88-132.72 171.744-147.04 6.464-1.984 16.88-2.16 25.024 3.888C426.944-23.744 432-17.776 432-7.136L432 328C432 332.416 428.416 336 424 336S416 332.416 416 328l0-335.136c0-4.32-1.616-6-2.832-6.896-2.848-2.112-7.744-2.4-10.832-1.456-48.64 14.864-169.2 147.52-170.4 148.848-1.504 1.664-3.632 2.624-5.872 2.64-2.032.016-4.368-.896-5.904-2.544-1.248-1.328-125.792-134.048-174.496-148.944-3.072-.944-7.984-.656-10.832 1.456C33.616-13.136 32-11.44 32-7.136L32 328C32 332.416 28.416 336 24 336zM448 376l0 80C448 469.232 437.232 480 424 480l-400 0C10.768 480 0 469.232 0 456l0-80C0 371.584 3.584 368 8 368l432 0C444.416 368 448 371.584 448 376zM432 384 16 384 16 456C16 460.416 19.584 464 24 464l400 0C428.416 464 432 460.416 432 456L432 384z" horiz-adv-x="448" unicode="&#xe01e;"/><glyph d="M336.336 472c0 4.416-3.584 8-8 8L7.664 480c-4.416 0-8-3.584-8-8S3.232 464 7.664 464l320.688 0C332.768 464 336.336 467.584 336.336 472zM320 382.208 320 440C320 444.416 316.416 448 312 448L25.312 448c-4.416 0-8-3.584-8-8l0-57.792c0-79.616 60.928-133.6 96.224-158.176C73.072 196.16 16 143.12 16 65.792L16 8C16 3.584 19.584 0 24 0l288 0c4.416 0 8 3.584 8 8l0 57.328c0 79.392-61.808 133.84-97.52 158.656C262.944 251.856 320 304.88 320 382.208zM168 92.96 244.96 16 91.04 16 168 92.96zM203.712 230.752C201.392 229.296 200 226.736 200 224s1.392-5.296 3.712-6.752C233.872 198.128 304 145.04 304 65.328L304 16l-36.608 0c-.144.176-.208.4-.368.56L176 107.584 176 120c0 4.416-3.584 8-8 8S160 124.416 160 120l0-12.416-91.024-91.024c-.16-.16-.224-.384-.368-.56L32 16l0 49.792c0 76.432 62.832 127.696 100.288 151.44C134.608 218.704 136 221.264 136 224s-1.392 5.296-3.712 6.752C102.528 249.632 32 302.16 32 382.208L32 432l272 0 0-49.792C304 305.76 241.168 254.512 203.712 230.752zM248.656 336.448 91.632 336.448c-2.864 0-5.52-1.536-6.944-4.016C83.264 329.936 83.28 326.88 84.72 324.4c18.992-32.336 46.72-52.128 76.08-73.104l2.544-1.808c1.392-.992 3.008-1.488 4.656-1.488s3.264.496 4.656 1.488c4.192 2.992 8.416 5.936 12.64 8.88 26.224 18.304 53.344 37.216 70.256 66.032 1.456 2.464 1.472 5.536.048 8.016C254.16 334.912 251.52 336.448 248.656 336.448zM176.128 271.504c-2.704-1.888-5.408-3.776-8.112-5.68-24.08 17.2-45.36 32.672-61.536 54.64l127.088 0C218.512 301.072 197.824 286.64 176.128 271.504zM7.664-32l320.688 0c4.416 0 8 3.584 8 8s-3.584 8-8 8L7.664-16c-4.416 0-8-3.584-8-8S3.232-32 7.664-32zM168 176c-4.416 0-8-3.584-8-8l0-16c0-4.416 3.584-8 8-8s8 3.584 8 8l0 16C176 172.416 172.416 176 168 176zM168 224c-4.416 0-8-3.584-8-8l0-16c0-4.416 3.584-8 8-8s8 3.584 8 8l0 16C176 220.416 172.416 224 168 224z" horiz-adv-x="336" unicode="&#xe01f;"/><glyph d="M224 480C135.776 480 64 408.224 64 320l0-48L40 272C17.952 272 0 254.048 0 232l0-224C0-14.048 17.952-32 40-32l368 0c22.048 0 40 17.952 40 40l0 224c0 22.048-17.952 40-40 40L384 272l0 48C384 408.224 312.224 480 224 480zM80 320c0 79.392 64.608 144 144 144s144-64.608 144-144l0-48-48 0 0 48c0 52.944-43.056 96-96 96s-96-43.056-96-96l0-48L80 272 80 320zM304 272 144 272l0 48c0 44.112 35.888 80 80 80s80-35.888 80-80L304 272zM196.688 144l-80-80L43.312 64l80 80L196.688 144zM292.688 144l-80-80L139.312 64l80 80L292.688 144zM388.688 144l-80-80-73.376 0 80 80L388.688 144zM432 144l0-80-100.688 0 80 80L432 144zM20.688 64 16 64l0 80 84.688 0L20.688 64zM408-16l-368 0C26.768-16 16-5.232 16 8L16 48l416 0 0-40C432-5.232 421.232-16 408-16zM432 232 432 160 16 160l0 72C16 245.232 26.768 256 40 256l368 0C421.232 256 432 245.232 432 232z" horiz-adv-x="448" unicode="&#xe020;"/><glyph d="M631.968 480C627.536 480 624 476.416 624 472l0-496c0-4.416 3.536-8 7.968-8s8 3.584 8 8l0 496C639.968 476.416 636.384 480 631.968 480zM603.472 460.736c-2.72 1.328-6.016.992-8.416-.88l-9.04-7.12C538.368 415.056 458.672 352 296 352L74.096 352C50.88 352 32 332.8 32 309.216l0-171.424C32 114.752 50.88 96 74.096 96l54.304 0c1.408-18 8.032-60.704 39.264-92.176C191.248-19.952 223.664-32 264-32c4.416 0 8 3.584 8 8S268.416-16 264-16c-35.872 0-64.416 10.432-84.896 31.008C152.432 41.824 146.032 79.392 144.496 96l47.92 0c1.36-10.912 5.76-30.096 20.384-44.832C225.424 38.448 242.656 32 264 32c4.416 0 8 3.584 8 8S268.416 48 264 48c-16.88 0-30.256 4.832-39.744 14.336-10.512 10.544-14.304 24.736-15.696 33.664l86.336 0c163.456 0 243.792-63.408 291.792-101.296l8.352-6.576c1.424-1.12 3.168-1.68 4.912-1.68 1.2 0 2.4.272 3.504.816 2.752 1.344 4.496 4.128 4.496 7.184L607.952 453.552C607.968 456.608 606.224 459.392 603.472 460.736zM48 137.792 48 309.216C48 323.984 59.696 336 74.096 336L128 336l0-224L74.096 112C59.456 112 48 123.328 48 137.792zM592 10.928C541.856 50.384 458.752 112 294.912 112l-92.752 0c-.752.24-1.52.48-2.368.496-.016 0-.016 0-.032 0-.864 0-1.68-.24-2.464-.496L144 112 144 336l152 0C459.792 336 542.304 397.824 592 437.056L592 10.928zM8 130.288c4.416 0 8 3.584 8 8L16 309.712c0 4.416-3.584 8-8 8S0 314.144 0 309.712l0-171.424C0 133.872 3.584 130.288 8 130.288z" horiz-adv-x="640" unicode="&#xe021;"/><glyph d="M216 480C73.008 480 4.672 399.248 1.824 395.808.656 394.368 0 392.576 0 390.704l0-160.864c0-136.064 125.216-216.848 179.04-245.264 3.904-2.064 8.736-.56 10.816 3.344 2.064 3.904.56 8.752-3.344 10.816C122.832 32.352 16 107.072 16 229.856L16 387.664c11.232 12.08 74.112 73.552 192 76.24L208-24c0-4.416 3.584-8 8-8 2.384 0 4.528 1.04 6 2.704C248.192-18.032 432 66.944 432 232l0 160c0 1.872-.656 3.68-1.84 5.104-2.368 2.864-59.424 70-178.256 81.984-4.4.304-8.336-2.768-8.768-7.152-.448-4.4 2.768-8.32 7.152-8.768C350.88 453.024 405.536 400.048 416 388.928L416 232c0-143.232-149.808-223.184-192-242.864L224 472C224 476.416 220.416 480 216 480z" horiz-adv-x="432" unicode="&#xe022;"/><glyph d="M408 464C412.416 464 416 467.584 416 472S412.416 480 408 480l-272 0C131.584 480 128 476.416 128 472S131.584 464 136 464L408 464zM408 448l-272 0-32 0C51.472 448 26.992 429.344 15.696 413.696c-13.824-19.2-16.416-44.848-7.296-72.224 14.112-42.336 61.536-93.2 90.688-115.792C100.56 224.544 102.288 224 104 224c2.384 0 4.752 1.056 6.336 3.104 2.704 3.488 2.064 8.512-1.424 11.232-26.784 20.736-72.4 69.472-85.312 108.208C16.128 368.896 17.936 389.424 28.688 404.336 41.728 422.432 67.76 432 104 432L128 432l0-152c0-107.616 106.768-169.616 128.576-181.152C256.24 97.952 256 97.008 256 96l0-40c0-4.416 3.584-8 8-8s8 3.584 8 8L272 96c0 .928-.24 1.792-.528 2.624C295.696 110.016 416 172 416 280L416 432l24 0c36.24 0 62.272-9.568 75.312-27.664 10.752-14.912 12.56-35.44 5.088-57.808-10.08-30.256-60.304-88.848-85.312-108.208-3.488-2.704-4.128-7.728-1.424-11.232C435.248 225.056 437.616 224 440 224c1.712 0 3.44.544 4.912 1.664 27.712 21.472 79.376 81.904 90.688 115.792 9.12 27.376 6.528 53.024-7.296 72.224C517.008 429.344 492.528 448 440 448L408 448zM400 280c0-97.488-114.432-156.864-135.776-167.088C244.576 123.552 144 182.784 144 280L144 432l256 0L400 280zM176 32c-18.256 0-32-13.76-32-32l0-24C144-28.416 147.584-32 152-32l224 0c4.416 0 8 3.584 8 8l0 22.8C384 17.408 369.936 32 352 32L176 32zM368-1.2 368-16 160-16l0 16c0 9.424 6.576 16 16 16l176 0C361.12 16 368 8.608 368-1.2z" horiz-adv-x="544" unicode="&#xe023;"/><glyph d="M216 464l-176 0C35.584 464 32 460.416 32 456l0-240C32 211.584 35.584 208 40 208l176.032 0C220.048 208 240 206.816 240 184c0-4.416 3.584-8 8-8s8 3.584 8 8L256 424.256C255.568 438 246.656 464 216 464zM240 216.704C231.984 222.096 222.592 224 216 224L48 224 48 448l168 0c22.336 0 23.904-21.808 24-24L240 216.704zM421.264 144 199.792 144c.096-.016-11.248-.144-18.24 6.704-4.016 3.952-6.064 9.76-6.064 17.296 0 4.416-3.584 8-8 8s-8-3.584-8-8c0-12.064 3.696-21.76 11.008-28.848C181.488 128.512 196.864 128 199.6 128c.24 0 221.664 0 221.664 0 6.224 0 11.504 2.512 14.896 7.088 4.496 6.064 4.4 13.808 2.96 18.592-9.008 29.648-56.656 94.128-70.064 111.936 12.912 19.856 61.04 95.04 70.064 124.688 1.456 4.784 1.552 12.512-2.96 18.592C432.768 413.488 427.488 416 421.264 416l-140.592 0c-4.416 0-8-3.584-8-8s3.584-8 8-8l140.592 0c1.584 0 1.904-.448 2.032-.624.752-.992.88-3.152.496-4.4-9.536-31.376-70.592-124.352-71.216-125.296-1.872-2.848-1.728-6.56.336-9.264.608-.8 61.424-80.288 70.88-111.376.368-1.264.256-3.408-.496-4.416C423.168 144.448 422.848 144 421.264 144zM16-24l0 496C16 476.416 12.416 480 8 480S0 476.416 0 472l0-496C0-28.416 3.584-32 8-32S16-28.416 16-24z" horiz-adv-x="448" unicode="&#xe024;"/><glyph d="M147.824-30.832c.144-.096.336-.048.48-.144C149.472-31.568 150.688-32 152-32c.704 0 1.408.096 2.112.288L328 15.744l173.888-47.456C502.592-31.904 503.296-32 504-32c1.312 0 2.528.432 3.68 1.04.16.08.336.048.48.144l144 88c3.056 1.872 4.496 5.568 3.52 9.008l-79.744 280c-.656 2.352-2.368 4.272-4.64 5.216-2.272.912-4.816.768-6.976-.416l-79.392-44.544c-3.84-2.16-5.216-7.04-3.056-10.896 2.16-3.872 7.024-5.232 10.912-3.056l70.544 39.6 75.312-264.416L510.4-10.704l-30.464 243.696c-.544 4.4-4.688 7.456-8.944 6.944-4.368-.544-7.488-4.544-6.944-8.928l30.512-244.144L336 30.144l0 43.68c0 4.416-3.584 8-8 8s-8-3.584-8-8l0-43.68-158.576-43.28 30.512 244.144c.544 4.384-2.56 8.384-6.944 8.928-4.352.512-8.384-2.544-8.944-6.944L145.6-10.704l-128.24 78.368L92.672 332.064l70.544-39.6c3.872-2.144 8.736-.784 10.912 3.056 2.16 3.856.784 8.72-3.056 10.896L91.664 350.976C89.536 352.176 86.992 352.336 84.704 351.392c-2.272-.944-3.984-2.848-4.64-5.216l-79.744-280c-.992-3.456.448-7.136 3.52-9.008L147.824-30.832zM322.576 106.112c1.536-1.408 3.472-2.112 5.424-2.112 1.92 0 3.84.688 5.376 2.064C338.704 110.912 464 225.888 464 344 464 420.272 404.272 480 328 480S192 420.272 192 344C192 227.936 317.248 111.04 322.576 106.112zM328 464C396.4 464 448 412.416 448 344c0-97.552-95.888-197.392-119.952-220.912C304.032 146.88 208 248.032 208 344 208 412.416 259.6 464 328 464zM400 344C400 383.696 367.696 416 328 416S256 383.696 256 344s32.304-72 72-72S400 304.304 400 344zM328 288c-30.88 0-56 25.12-56 56S297.12 400 328 400 384 374.88 384 344 358.88 288 328 288z" horiz-adv-x="656" unicode="&#xe025;"/><glyph d="M320.672 417.488C320.672 448.608 295.728 480 240 480c-49.072 0-82.064-25.12-82.064-62.512 0-21.824 8.832-31.776 14.672-38.368 3.088-3.472 4.336-5.04 4.336-6.608 0-2.592 0-4.16-8.928-4.512L70.448 368C32.928 368 0 338.096 0 304l0-59.712c.608-15.104 9.136-24.496 22.272-24.496 7.472 0 13.008 4.272 18.384 8.416C47.856 233.728 56 240 72 240 99.136 240 128 217.568 128 176c0-42.064-29.248-71.392-55.504-71.392-15.84 0-24.128 6.864-31.456 12.912-5.488 4.544-11.152 9.248-18.784 9.248-13.12 0-21.664-9.392-22.272-24.816l0-65.632C0 .56 33.584-32 70.448-32l98.064 0c14.848.608 24.432 9.36 24.432 22.336 0 7.792-4.432 12.8-8.352 17.216-5.248 5.904-10.656 12-10.656 27.744 0 28.256 25.664 46.512 65.36 46.512 39.712 0 65.376-18.256 65.376-46.512 0-15.744-5.424-21.84-10.656-27.744-3.92-4.416-8.368-9.424-8.368-17.216 0-13.152 9.36-21.696 24.768-22.32L373.472-32c34.432 0 58.496 26.832 58.496 65.248l0 74.4c.416 1.952 5.344 9.408 12.864 9.408 1.536 0 3.088-1.264 6.544-4.336 6.56-5.872 16.496-14.752 38.288-14.752C524.608 97.984 560 124.768 560 176c0 55.264-32.144 80-64 80-21.504 0-33.92-9.824-42.144-16.32-3.648-2.88-7.072-5.6-9.024-5.6-7.536 0-12.464 7.488-12.832 9.136-.016.128-.016.256-.032.384l0 57.328C431.968 339.792 407.36 368 373.472 368l-62.736 0c-.208.016-.416.032-.64.048-8.448.32-8.448 1.872-8.448 4.464 0 1.568 1.248 3.12 4.336 6.608C311.824 385.696 320.672 395.664 320.672 417.488zM294.016 389.728c-3.92-4.416-8.368-9.44-8.368-17.232 0-8.8 4.016-19.392 23.536-20.432C309.552 352.016 309.92 352 310.304 352l63.168 0C401.376 352 416 326.304 416 300.928l0-58.128c0-.576-.112-1.136 0-1.68 1.472-9.776 13.472-23.024 28.832-23.024 7.52 0 13.056 4.384 18.96 9.04C471.408 233.168 480.064 240 496 240c29.152 0 48-25.12 48-64 0-42.624-28.176-62.016-54.336-62.016-15.664 0-21.744 5.424-27.632 10.672-4.416 3.936-9.424 8.4-17.2 8.4-15.36 0-27.376-13.264-28.832-23.04-.112-.544 0-1.104 0-1.68l0-75.104C416 8.736 402.832-16 373.472-16l-62.736 0c-9.088.368-9.088 4.56-9.088 6.336 0 1.552 1.248 3.12 4.336 6.608 5.84 6.592 14.688 16.544 14.688 38.368 0 31.12-25.152 62.512-81.376 62.512-48.656 0-81.36-25.12-81.36-62.512 0-21.824 8.832-31.776 14.688-38.368 3.072-3.472 4.336-5.04 4.336-6.608 0-1.792 0-5.984-8.768-6.336L70.448-16C42.976-16 16 9.92 16 36.32l0 65.312c.352 9.136 4.496 9.136 6.272 9.136 1.856 0 5.12-2.704 8.592-5.568 7.968-6.608 20.048-16.592 41.648-16.592C107.024 88.608 144 123.728 144 176c0 51.968-37.088 80-72 80-21.44 0-33.264-9.088-41.088-15.12-3.552-2.736-6.624-5.088-8.64-5.088-1.76 0-5.904 0-6.272 8.816L16 304c0 28.288 28.704 48 54.448 48l97.84 0c.256 0 .496.016.752.032l0 0c19.76.736 23.904 11.552 23.904 20.48 0 7.792-4.432 12.8-8.352 17.216-5.248 5.904-10.656 12-10.656 27.76C173.936 445.312 200.48 464 240 464c39.28 0 64.672-18.256 64.672-46.512C304.672 401.744 299.248 395.632 294.016 389.728z" horiz-adv-x="560" unicode="&#xe026;"/><glyph d="M632 256l-592 0c-2.464 0-4.8-1.136-6.32-3.072-1.52-1.936-2.048-4.464-1.456-6.864L96.32-10.208C97.856-15.6 102.576-32 120-32l432 0c17.488 0 22.16 16.416 23.76 22.064l64 256c.592 2.384.064 4.928-1.456 6.864C636.8 254.864 634.464 256 632 256zM560.32-5.808C557.408-16 554.4-16 552-16l-432 0c-2.384 0-5.376 0-8.24 9.936L50.256 240l571.504 0L560.32-5.808zM296 32c4.416 0 8 3.584 8 8l0 144c0 4.416-3.584 8-8 8S288 188.416 288 184l0-144C288 35.584 291.584 32 296 32zM183.984 32c.304 0 .592.016.912.048 4.384.496 7.552 4.448 7.056 8.832l-16 144c-.48 4.4-4.32 7.504-8.848 7.072-4.384-.496-7.552-4.448-7.056-8.832l16-144C176.496 35.024 179.968 32 183.984 32zM392 32c4.416 0 8 3.584 8 8l0 144c0 4.416-3.584 8-8 8S384 188.416 384 184l0-144C384 35.584 387.584 32 392 32zM487.104 32.048C487.424 32.016 487.712 32 488.016 32c4.016 0 7.488 3.024 7.936 7.12l16 144c.48 4.384-2.672 8.336-7.056 8.832-4.592.448-8.352-2.672-8.848-7.072l-16-144C479.568 36.496 482.72 32.544 487.104 32.048zM552 288c1.856 0 3.712.64 5.232 1.952 3.344 2.896 3.696 7.936.816 11.28l-152 176c-2.896 3.36-7.936 3.696-11.28.832-3.344-2.896-3.696-7.936-.816-11.28l152-176C547.536 288.944 549.76 288 552 288zM285.056 478.192c-3.408 2.768-8.448 2.304-11.248-1.136l-144-176c-2.8-3.408-2.304-8.448 1.12-11.264C132.416 288.592 134.224 288 136 288c2.32 0 4.608.992 6.192 2.944l144 176C288.992 470.352 288.48 475.392 285.056 478.192zM664 320l-64 0c-4.416 0-8-3.584-8-8s3.584-8 8-8l64 0c4.416 0 8 3.584 8 8S668.416 320 664 320zM216 304l256 0c4.416 0 8 3.584 8 8S476.416 320 472 320l-256 0c-4.416 0-8-3.584-8-8S211.584 304 216 304zM8 304l80 0C92.416 304 96 307.584 96 312S92.416 320 88 320l-80 0C3.584 320 0 316.416 0 312S3.584 304 8 304z" horiz-adv-x="672" unicode="&#xe027;"/><glyph d="M320.96 473.392c-9.28 8.528-24.624 8.528-33.904 0L4.048 302.656c-2.4-1.456-3.872-4.048-3.872-6.848l0-302.752C.176-20.752 11.472-32 25.36-32l557.28 0c13.888 0 25.184 11.248 25.184 25.056L607.824 295.808c0 2.8-1.472 5.392-3.872 6.848L320.96 473.392zM296.064 460.16c.56.336 1.056.736 1.52 1.184C299.312 463.056 301.584 464 304 464s4.688-.944 6.4-2.656c.464-.448.976-.848 1.52-1.184l275.632-166.304L387.904 174.88c-3.792-2.272-5.04-7.168-2.784-10.976C386.624 161.392 389.28 160 392 160c1.392 0 2.8.352 4.08 1.12L592 277.76l0-284.112L321.04 173.904c-8.608 6.864-25.504 6.864-33.536.4L16-6.272 16 277.76l195.904-116.64C213.184 160.352 214.608 160 216 160c2.72 0 5.376 1.392 6.88 3.904 2.256 3.792 1.008 8.704-2.784 10.976L20.432 293.856 296.064 460.16zM577.44-16 30.432-16l266.496 177.376c2.768 2.208 11.392 2.192 14.704-.4L577.44-16zM104 272l400 0c4.416 0 8 3.584 8 8S508.416 288 504 288l-400 0C99.584 288 96 284.416 96 280S99.584 272 104 272z" horiz-adv-x="608" unicode="&#xe028;"/><glyph d="M240-24 240 128c0 4.416-2.128 16-6.544 16S224 140.416 224 136l0-160c0-4.416 5.024-8 9.456-8S240-28.416 240-24zM241.456 455.008 241.456 472c0 4.416-3.584 8-8 8s-8-3.584-8-8l0-16.992c0-4.416 3.584-8 8-8S241.456 450.576 241.456 455.008zM62.24 424.464 5.168 379.696C1.888 376.672 0 372.4 0 368s1.888-8.672 5.664-12.128l56.08-43.92C66.656 307.424 75.408 304 82.112 304L303.36 304C312.528 304 320 311.408 320 320.528L320 415.472C320 424.592 312.528 432 303.36 432L82.112 432C75.408 432 66.656 428.576 62.24 424.464zM304 320.528C304 320.288 303.712 320 303.36 320L82.112 320c-2.72 0-7.536 1.872-10 4.128L15.536 367.536l57.056 44.768C74.592 414.128 79.392 416 82.112 416L304 415.472 304 320.528zM402.256 280.048C397.344 284.576 388.592 288 381.888 288L160.64 288C151.472 288 144 280.592 144 271.472l0-94.96C144 167.408 151.472 160 160.64 160l221.248 0c6.704 0 15.456 3.424 19.888 7.536l57.056 44.768C462.112 215.328 464 219.6 464 224s-1.888 8.672-5.664 12.128L402.256 280.048zM160 272l221.888 0c2.72 0 7.536-1.872 10-4.128l56.576-43.408-57.056-44.768C389.408 177.872 384.608 176 381.888 176L160 176 160 272z" horiz-adv-x="464" unicode="&#xe029;"/><glyph d="M439.424 442.976c-.848 2.112-2.544 3.76-4.672 4.544-2.128.768-4.496.624-6.496-.432L237.76 346.576c-3.584-1.888-5.184-6.16-3.728-9.936l3.92-10.256L127.984 266.08C124.384 264.112 122.864 259.76 124.432 256l3.648-8.784-116.784-55.808c-3.84-1.84-5.568-6.352-3.936-10.288l23.968-57.76c1.28-3.072 4.24-4.944 7.392-4.944.896 0 1.792.144 2.672.464l122 43.216 3.648-8.784c1.264-3.056 4.224-4.944 7.392-4.944.736 0 1.472.096 2.224.32l116.416 33.552 3.488-9.104C297.744 169.984 300.768 168 304 168c.784 0 1.568.112 2.352.352l208 64c2.144.656 3.904 2.176 4.864 4.192.96 2.016 1.04 4.352.208 6.416L439.424 442.976zM43.2 136.496l-18.144 43.744 109.168 52.176 23.024-55.52L43.2 136.496zM179.056 166.032l-3.808 9.184c0 0 0 0 0 0L145.76 246.336c0 0 0 0 0 0l-3.808 9.168 101.376 55.6 37.984-98.144 6-15.696L179.056 166.032zM308.8 185.84l-3.248 8.496c-.048.176-.016.384-.096.56l-9.888 25.552-44.064 115.296 176.368 93.04 73.472-183.68L308.8 185.84zM463.424 474.976c-1.648 4.112-6.32 6.096-10.4 4.464-4.096-1.648-6.096-6.304-4.464-10.4l96-240C545.824 225.904 548.832 224 552 224c.992 0 2 .176 2.976.576 4.096 1.648 6.096 6.304 4.464 10.4L463.424 474.976zM288 144l-48 0c-18.24 0-32-13.76-32-32l0-21.04-94.064-109.744c-2.88-3.344-2.496-8.4.864-11.28C116.304-31.36 118.16-32 120-32c2.256 0 4.496.944 6.064 2.8L219.68 80 256 80l0-104c0-4.416 3.584-8 8-8s8 3.584 8 8L272 80l36.32 0 93.6-109.2C403.504-31.056 405.744-32 408-32c1.84 0 3.696.64 5.2 1.936 3.36 2.88 3.744 7.92.864 11.28L320 90.96l0 19.84C320 129.408 305.952 144 288 144zM304 96l-80 0 0 16c0 9.424 6.576 16 16 16l48 0c9.12 0 16-7.392 16-17.2L304 96z" horiz-adv-x="560" unicode="&#xe02a;"/><glyph d="M59.072 132.48c2.816-.672 6.64-4.144 7.744-7.312l5.6-13.504c1.264-2.592 1.024-7.728-.48-10.192l-22.352-36.544c-4.784-7.84-3.792-18.944 2.64-26.144l18.928-18.912c6.592-5.856 18.224-6.912 25.808-2.32l36.544 22.352c2.288 1.408 7.2 1.904 10.64.288l13.488-5.568c2.72-.944 6.192-4.752 6.864-7.568l10.032-41.664c2.128-8.832 10.56-16.096 19.616-16.928 0 0 5.552-.512 13.872-.512s13.872.512 13.888.512c9.04.816 17.472 8.096 19.6 16.928l10.048 41.664c.672 2.8 4.128 6.624 7.296 7.728l13.504 5.6c2.384 1.168 7.904.928 10.192-.48l36.544-22.352c3.216-1.968 7.056-3.008 11.136-3.008 5.52 0 10.864 1.936 15.008 5.632l18.912 18.928c6.112 6.864 7.104 17.968 2.32 25.808l-22.352 36.544c-1.504 2.464-1.744 7.6-.288 10.64l5.568 13.488c.944 2.72 4.752 6.192 7.568 6.864l41.664 10.032c8.832 2.128 16.096 10.56 16.928 19.616 0 0 .512 5.552.512 13.872s-.512 13.872-.512 13.888c-.816 9.04-8.096 17.472-16.928 19.616l-41.648 10.016c-2.816.672-6.64 4.144-7.744 7.312l-5.6 13.504c-1.264 2.592-1.024 7.728.48 10.192l22.352 36.544c4.784 7.84 3.792 18.944-2.64 26.144l-18.928 18.912c-6.608 5.872-18.256 6.928-25.808 2.32l-36.544-22.352c-2.288-1.392-7.216-1.92-10.64-.288l-13.488 5.568c-2.72.944-6.176 4.752-6.848 7.568l-10.048 41.664c-2.128 8.832-10.56 16.096-19.616 16.928C221.872 383.488 216.32 384 208 384s-13.872-.512-13.888-.512c-9.04-.816-17.472-8.096-19.616-16.928L164.48 324.928c-.672-2.816-4.144-6.64-7.312-7.744l-13.504-5.6c-2.4-1.168-7.904-.912-10.192.48L96.944 334.416C89.376 339.024 77.984 338.224 70.8 331.792l-18.912-18.928c-6.112-6.864-7.104-17.968-2.32-25.808l22.352-36.544c1.504-2.464 1.744-7.6.288-10.64l-5.568-13.488c-.944-2.72-4.752-6.192-7.568-6.864l-41.664-10.032c-8.832-2.128-16.096-10.56-16.928-19.616C.512 189.872 0 184.32 0 176s.512-13.872.512-13.888c.816-9.04 8.096-17.472 16.928-19.616L59.072 132.48zM16 176c0 7.328.432 12.272.448 12.432.192 2.16 2.64 4.992 4.736 5.504l41.664 10.032c8.08 1.952 16.224 9.344 18.752 16.752l5.184 12.592c3.648 7.472 3.136 18.448-1.2 25.552l-22.352 36.528c-1.072 1.776-.768 5.296.288 6.496L81.776 320.16c1.456 1.296 5.168 1.616 6.832.608l36.544-22.352c6.928-4.24 18.8-4.528 25.088-1.408l12.608 5.216c7.856 2.704 15.248 10.848 17.2 18.944l10.016 41.648c.512 2.112 3.344 4.56 5.504 4.752C195.728 367.568 200.672 368 208 368s12.272-.432 12.432-.448c2.16-.192 4.992-2.64 5.504-4.736l10.032-41.648c1.952-8.08 9.328-16.24 16.752-18.768l12.592-5.184c7.312-3.584 18.64-3.024 25.552 1.2l36.528 22.352c1.664 1.008 5.6.48 6.496-.288l18.272-18.256c1.376-1.552 1.68-5.056.608-6.832l-22.352-36.544c-4.336-7.088-4.848-18.08-1.408-25.088l5.216-12.608c2.704-7.856 10.848-15.248 18.944-17.2l41.648-10.016c2.112-.512 4.56-3.344 4.752-5.504C399.568 188.272 400 183.328 400 176s-.432-12.272-.448-12.432c-.192-2.16-2.64-4.992-4.736-5.504l-41.664-10.032c-8.08-1.952-16.224-9.344-18.752-16.752l-5.184-12.592c-3.648-7.472-3.136-18.448 1.2-25.552l22.352-36.528c1.072-1.776.768-5.296-.288-6.496l-18.256-18.272c-.864-.768-2.432-1.264-4.016-1.264-1.104 0-2.128.24-2.8.656l-36.544 22.352c-6.912 4.224-18.784 4.528-25.088 1.408l-12.608-5.216c-7.856-2.704-15.248-10.864-17.184-18.944l-10.032-41.648c-.512-2.112-3.344-4.56-5.504-4.752C220.272-15.568 215.328-16 208-16s-12.272.432-12.432.448c-2.16.192-4.992 2.64-5.504 4.736l-10.032 41.664c-1.952 8.08-9.344 16.224-16.752 18.752l-12.592 5.184c-3.264 1.6-7.216 2.432-11.44 2.432-5.264 0-10.272-1.296-14.112-3.648l-36.528-22.352c-1.664-1.008-5.616-.464-6.496.288L63.84 49.776c-1.376 1.552-1.68 5.056-.608 6.832l22.352 36.544c4.336 7.088 4.848 18.08 1.408 25.088l-5.216 12.608c-2.704 7.856-10.848 15.248-18.944 17.2l-41.648 10.016c-2.112.512-4.56 3.344-4.752 5.504C16.432 163.728 16 168.672 16 176zM208 88c48.528 0 88 39.472 88 88s-39.472 88-88 88S120 224.528 120 176 159.472 88 208 88zM208 248c39.696 0 72-32.304 72-72s-32.304-72-72-72S136 136.304 136 176 168.304 248 208 248zM439.632 394.976c-.64-.976-2.96-2.208-4.144-2.208l-29.776.288c-7.232 0-14.48-5.136-16.848-11.936 0 0-1.312-3.728-2.752-9.44-1.44-5.712-2.048-9.616-2.048-9.616-1.12-7.216 2.896-15.2 9.344-18.576l26.256-13.76c1.008-.528 2.496-2.752 2.656-4.368l1.488-10.16c.24-1.12-.528-3.68-1.344-4.48l-21.152-20.736c-5.296-5.184-6.688-14.048-3.04-21.008l9.584-16c4.048-5.952 12.816-8.992 19.696-6.848l29.184 8.928c1.584 0 3.168-.608 4.064-1.328l8.24-6.08c.96-.64 2.224-2.992 2.208-4.144l-.288-29.632c-.064-7.296 5.056-14.608 11.936-17.008 0 0 3.728-1.312 9.44-2.752 5.712-1.44 9.616-2.048 9.616-2.048.416-.064 2.08-.192 2.496-.192 6.528 0 13.152 3.92 16.08 9.536l13.76 26.256c.528 1.008 2.752 2.496 4.368 2.656l10.608 1.536c1.6 0 3.488-.832 4.016-1.376l20.736-21.152c5.04-5.152 13.536-6.992 21.008-3.04l15.984 9.584c6.112 4.16 9.072 12.64 6.864 19.696l-8.832 28.272c-.336 1.088.192 3.712 1.248 4.976l6.08 8.24c.64.976 2.96 2.208 4.144 2.208l29.776-.288c7.232 0 14.48 5.136 16.848 11.936 0 0 1.312 3.728 2.752 9.44 1.44 5.712 2.048 9.616 2.048 9.616 1.12 7.216-2.896 15.2-9.344 18.576l-26.256 13.76c-1.008.528-2.496 2.752-2.656 4.368L632.208 356.8c-.24 1.12.528 3.68 1.344 4.48l21.152 20.736c5.296 5.184 6.688 14.048 3.04 21.008L648.16 419.024c-4.048 5.936-12.8 9.008-19.696 6.864L599.264 416.96c-1.584 0-3.168.608-4.064 1.328l-8.24 6.08c-.96.64-2.224 2.992-2.208 4.144l.288 29.632c.064 7.296-5.056 14.608-11.936 17.008 0 0-3.728 1.312-9.44 2.752-5.712 1.44-9.616 2.048-9.616 2.048C553.632 480 551.968 480.128 551.552 480.128c-6.528 0-13.152-3.92-16.08-9.536l-13.76-26.256c-.528-1.008-2.752-2.496-4.368-2.656L506.736 440.16c-1.6 0-3.488.832-4.016 1.376l-20.736 21.152c-5.024 5.136-13.504 6.992-21.008 3.04L444.976 456.16c-6.112-4.16-9.072-12.64-6.864-19.696l8.832-28.272c.336-1.088-.192-3.712-1.248-4.976L439.632 394.976zM452.752 385.824 458.24 393.28c4.288 5.072 5.952 13.344 3.968 19.664l-8.816 28.256c-.08.448.272 1.456.192 1.472l15.168 9.088 1.808-.272 20.752-21.152c3.68-3.744 9.744-6.176 15.44-6.176 1.312 0 2.576.128 3.264.304l9.2 1.36c6.592.576 13.616 5.248 16.688 11.104l13.744 26.24c.256.4 1.264.976 1.92.976.176-.016 3.44-.56 8.208-1.744 4.752-1.2 7.888-2.272 8.032-2.336.496-.208 1.216-1.248 1.248-1.76l-.288-29.632c-.064-6.624 3.92-14.064 9.072-17.424L585.28 405.76c4.944-4.176 13.424-5.936 19.664-3.968l28.384 8.832c.672 0 1.424-.416 1.328-.208l9.088-15.168c.176-.416 0-1.472-.272-1.808l-21.152-20.752c-4.72-4.656-7.168-12.72-5.872-18.704l1.344-9.2c.576-6.592 5.248-13.616 11.12-16.688l26.24-13.744c.448-.288 1.008-1.408.976-1.92-.016-.176-.56-3.44-1.744-8.208-1.2-4.752-2.272-7.888-2.336-8.032-.208-.496-1.248-1.216-1.76-1.248l-29.792.288c-6.576 0-13.936-3.984-17.264-9.072L597.76 278.72c-4.288-5.072-5.952-13.344-3.968-19.664l8.816-28.256c.08-.432-.272-1.456-.192-1.472l-15.168-9.088-1.808.272-20.752 21.152c-3.68 3.744-9.744 6.176-15.44 6.176-1.312 0-2.576-.128-3.264-.304l-9.2-1.36c-6.592-.576-13.616-5.248-16.688-11.104l-13.744-26.24c-.256-.4-1.264-.976-1.92-.976l0 0c-.176.016-3.44.56-8.208 1.744-4.752 1.2-7.888 2.272-8.032 2.336-.496.208-1.216 1.248-1.248 1.76l.288 29.632c.064 6.624-3.92 14.064-9.072 17.424L470.72 266.24c-3.552 3.008-8.784 4.8-14 4.8-2.016 0-3.936-.288-5.68-.832l-28.384-8.832c-.688 0-1.44.368-1.328.208l-9.088 15.168c-.176.416 0 1.472.272 1.808l21.152 20.752c4.72 4.656 7.168 12.72 5.872 18.704L438.192 327.2c-.576 6.592-5.248 13.616-11.12 16.688l-26.24 13.744c-.448.288-1.008 1.408-.976 1.92.016.176.56 3.44 1.744 8.208 1.2 4.752 2.272 7.888 2.336 8.032.208.496 1.248 1.216 1.76 1.248l29.792-.288C442.064 376.752 449.424 380.736 452.752 385.824zM528 288c26.464 0 48 21.536 48 48s-21.536 48-48 48-48-21.536-48-48S501.536 288 528 288zM528 368c17.648 0 32-14.352 32-32s-14.352-32-32-32-32 14.352-32 32S510.352 368 528 368z" horiz-adv-x="672" unicode="&#xe02b;"/><glyph d="M234.928 244.832c1.872 0 3.76.656 5.28 1.984L421.28 405.568 410.72 417.6l-181.072-158.736c-3.328-2.912-3.664-7.968-.736-11.296C230.496 245.76 232.704 244.832 234.928 244.832zM163.008-32C261.28-32 320 45.28 320 120c0 21.536-5.152 45.264-12.768 60.672l72.352 36.176C382.288 218.208 384 220.976 384 224l0 64 48 0c.176 0 1.632.096 1.808.096C444.464 288.816 447.648 292.208 448 304L448 368l48 0c2.064 0 3.488-.224 4.448-.368 1.936-.304 5.552-.864 8.688 1.952 3.232 2.88 3.088 6.528 2.96 9.744C512.064 380.48 512 382 512 384L512 456.496C512 469.456 501.456 480 488.496 480l-62 0c-5.664 0-11.168-2.064-15.504-5.824l-210.992-184.96c-10.384 2.08-26.08 4.784-37.008 4.784C73.12 294 0 220.88 0 131.008S73.12-32 163.008-32zM163.008 278c8.016 0 21.744-1.92 37.664-5.248 2.48-.544 5.024.16 6.912 1.808L421.52 462.112C422.912 463.328 424.688 464 426.496 464l62 0C492.64 464 496 460.64 496 456.496L496 384l-56 0C435.584 384 432 380.416 432 376L432 304l-56 0c-4.416 0-8-3.584-8-8l0-67.056-75.584-37.792c-2.096-1.04-3.632-2.976-4.192-5.248-.56-2.272-.096-4.688 1.28-6.592C296.544 169.6 304 145.488 304 120c0-66.848-52.736-136-140.992-136C81.952-16 16 49.952 16 131.008S81.952 278 163.008 278zM136 48c30.88 0 56 25.12 56 56S166.88 160 136 160 80 134.88 80 104 105.12 48 136 48zM136 144c22.048 0 40-17.952 40-40S158.048 64 136 64 96 81.952 96 104 113.952 144 136 144z" unicode="&#xe02c;"/><glyph d="M89.392-29.872c32.24 0 66.928 16.416 91.312 40.816l270.128 274.704c13.856 13.856 21.568 32.224 21.696 51.696.144 19.52-7.344 37.824-21.056 51.552-28.288 28.272-74.576 28.016-103.392-.768L141.024 171.648c-3.248-3.408-3.136-8.832.288-12.096 3.408-3.264 8.8-3.136 12.096.272L360.32 376.176c21.968 21.984 57.456 22.256 79.056.64 10.448-10.448 16.16-24.416 16.048-39.328-.096-14.96-6.032-29.056-16.736-39.776L168.56 22.992c-28.416-28.4-86.816-54.16-121.84-19.104-16.592 16.592-24.912 36.944-24.048 58.864.848 21.76 11.088 43.52 28.912 61.328L360.32 437.424c16.416 16.416 42.064 25.92 70.336 26.016.176 0 .336 0 .512 0 28.032 0 53.328-9.232 69.472-25.376 16.256-16.24 25.504-41.744 25.392-69.984-.112-28.272-9.616-53.904-26.144-70.432L261.568 49.888c-3.28-3.408-3.168-8.816.24-12.096 3.392-3.264 8.816-3.168 12.08.24l238.208 247.648c19.6 19.584 30.912 49.6 31.024 82.336.144 32.752-10.944 62.704-30.384 82.144-19.328 19.328-49.024 30.4-81.568 30.4-.192 0-.384 0-.576 0-32.752-.128-62.768-11.44-82.4-31.072L39.44 136.128c-43.216-43.216-45.232-103.92-4.816-144.336C49.776-23.344 69.088-29.872 89.392-29.872z" horiz-adv-x="544" unicode="&#xe02d;"/><glyph d="M303.776 216.464c2.624-.288 5.232-.416 7.84-.416 19.456 0 38.112 7.696 52.128 21.712l118.48 118.48c13.856 13.856 21.584 32.224 21.696 51.696.144 19.52-7.344 37.824-21.056 51.552-13.6 13.6-31.68 21.072-51.008 21.072-.176 0-.336 0-.528 0-19.472-.128-37.824-7.84-51.68-21.696l-118.48-118.48c-17.52-17.52-25.104-42.384-20.304-66.512.928-4.64 5.536-7.664 10.064-6.704 4.64.928 7.648 5.424 6.72 10.048-3.696 18.512 2.144 37.616 15.616 51.072l118.48 118.48c10.656 10.672 24.768 16.592 39.712 16.688 15.6 0 28.88-5.6 39.328-16.048s16.16-24.432 16.064-39.328c-.112-14.96-6.032-29.056-16.704-39.712l-118.48-118.48c-12.224-12.208-29.008-18.128-46.064-16.384-4.56.528-8.912-2.896-9.408-7.6C295.68 221.168 299.088 216.96 303.776 216.464zM242.24 107.632c18.368 18.368 25.728 44.304 19.664 69.344-1.104 4.592-5.616 7.456-10.336 6.304-4.592-1.104-7.408-5.728-6.304-10.32 4.656-19.216-1.008-39.104-15.136-53.248l-118.48-118.48c-10.656-10.672-24.768-16.592-39.712-16.688-15.344-.08-28.88 5.584-39.328 16.048-10.448 10.448-16.16 24.416-16.048 39.328.096 14.96 6.032 29.056 16.688 39.728l118.48 118.48c12.336 12.336 29.152 18.304 46.496 16.336 4.608-.352 8.944 2.832 9.472 7.536.528 4.688-2.832 8.928-7.536 9.472-22.464 2.528-44.48-5.184-60.528-21.232l-118.48-118.48c-13.856-13.856-21.568-32.224-21.696-51.696-.144-19.52 7.344-37.824 21.056-51.552 13.6-13.6 31.68-21.072 51.008-21.072.176 0 .336 0 .528 0 19.472.128 37.824 7.84 51.68 21.696L242.24 107.632zM363.744 338.048c-3.344 3.344-8.752 3.344-12.096 0l-216-216c-3.344-3.328-3.344-8.752 0-12.096 1.664-1.664 3.856-2.512 6.048-2.512s4.368.832 6.048 2.512l216 216C367.088 329.296 367.088 334.704 363.744 338.048z" unicode="&#xe02e;"/><glyph d="M648 480l-160 0c-11.056 0-25.184-6.016-32.752-13.92l-21.28-21.44c-3.104-3.136-3.072-8.208.064-11.312 3.104-3.104 8.208-3.088 11.312.048l21.344 21.536C471.248 459.664 481.408 464 488 464l160 0C652.4 464 656 460.416 656 456l0-160.784c0-6.576-4.336-16.736-9.184-21.392L421.52 50.272c-3.216-3.056-8.56-2.976-11.68.128l-42.368 42.384c-3.12 3.12-8.192 3.12-11.312 0s-3.12-8.192 0-11.312l42.368-42.384c4.704-4.688 10.944-7.056 17.184-7.056 6.112 0 12.24 2.256 16.992 6.784l225.312 223.568C665.984 270.032 672 284.16 672 295.216L672 456C672 469.232 661.232 480 648 480zM624.608 400c0 17.648-14.352 32-32 32s-32-14.352-32-32 14.352-32 32-32S624.608 382.352 624.608 400zM576.608 400c0 8.816 7.168 16 16 16s16-7.184 16-16-7.168-16-16-16S576.608 391.184 576.608 400zM263.392 416c-11.056 0-25.184-6.016-32.768-13.92L6.736 175.984c-9.088-9.472-8.96-24.752.336-34.048L173.92-24.912C178.48-29.488 184.592-32 191.136-32c6.336 0 12.32 2.384 16.944 6.816l225.296 223.552c7.984 7.648 14.016 21.776 14.016 32.848L447.392 392c0 13.232-10.768 24-24 24L263.392 416zM432 392l0-160.784c0-6.592-4.944-16.736-9.792-21.392L196.912-13.728c-3.12-2.96-8.64-2.896-11.664.128L18.384 153.232c-3.12 3.136-3.184 8.48-.208 11.568L242.08 390.912C246.64 395.664 256.8 400 263.392 400l160 0C427.792 400 432 396.416 432 392zM368 368c-17.648 0-32-14.352-32-32s14.352-32 32-32 32 14.352 32 32S385.648 368 368 368zM368 320c-8.832 0-16 7.184-16 16s7.168 16 16 16 16-7.184 16-16S376.832 320 368 320z" horiz-adv-x="672" unicode="&#xe02f;"/><glyph d="M176 480C91.36 480 0 412.704 0 304c0-53.648 21.344-98.784 62.336-132.992.432-.544.928-1.008 1.472-1.408 30.416-32.992 31.952-39.264 32.16-53.776.096-5.744.048-7.44 0-8.368l-.064-3.344c-.24-7.232-.608-19.344 14.384-23.92l129.504-28.496c.576-.128 1.152-.192 1.712-.192 3.68 0 6.992 2.544 7.808 6.288.96 4.32-1.776 8.592-6.096 9.536l-128.88 28.336c-2.48.752-2.688.816-2.464 7.968l.048 3.056c0 0 .16 1.248.032 9.376-.304 20.304-4.72 30.112-36.944 64.944-.624.768-1.376 1.408-2.208 1.888C35.104 214.944 16 255.68 16 304 16 402.832 99.04 464 176 464c78.656 0 160-59.856 160-160 0-63.648-30.848-98.736-56.288-120.816-.88-.416-1.664-1.008-2.352-1.744-32.592-35.264-37.008-45.072-37.312-65.376 0-.48-.016-1.04 0-1.648l-.016-.56c-.048-1.216-.224-1.888-.208-2.144C239.28 111.792 237.952 112 237.952 112l-67.12 15.792c-4.352.992-8.608-1.664-9.616-5.952-1.008-4.304 1.648-8.608 5.952-9.632l66.304-15.552c.88-.32 8.848-2.912 15.568 1.808 2.928 2.064 6.336 6.112 6.944 13.856l.048.752c.016.512.032 1.04.032 1.584 0 .144 0 .288-.016.416l.016.736c.208 14.432 1.712 20.704 32.08 53.696.144.112.304.224.432.352C331.248 205.712 352 249.6 352 304 352 414.16 262.512 480 176 480zM240 8c3.664 0 6.96 2.512 7.792 6.24.992 4.304-1.712 8.592-6.032 9.568l-128 29.024c-4.336.96-8.592-1.728-9.568-6.032-.992-4.304 1.712-8.592 6.032-9.568l128-29.024C238.832 8.064 239.424 8 240 8zM121.744 7.136c-4.336.96-8.576-1.744-9.568-6.048-.96-4.32 1.744-8.592 6.064-9.552l104-23.328C222.848-31.936 223.424-32 224-32c3.664 0 6.976 2.528 7.808 6.256.96 4.32-1.744 8.592-6.064 9.552L121.744 7.136z" horiz-adv-x="352" unicode="&#xe030;"/><glyph d="M492.24 363.808 307.552 468.048c-25.136 14.192-68.336 14.208-93.52 0L29.344 363.808C15.216 355.824 7.456 344.656 7.456 332.336s7.776-23.488 21.888-31.456l184.688-104.256c12.576-7.104 29.184-11.008 46.752-11.008 17.584 0 34.192 3.92 46.768 11.008l184.688 104.256c14.128 7.968 21.904 19.136 21.904 31.456S506.352 355.824 492.24 363.808zM483.824 315.76l-184.688-104.256c-19.808-11.184-56.896-11.2-76.704 0L37.744 315.76C29.36 320.496 24.56 326.544 24.56 332.336c0 5.808 4.8 11.84 13.184 16.592l184.688 104.256c9.904 5.6 23.888 8.8 38.336 8.8 14.464 0 28.448-3.216 38.352-8.8l184.688-104.256c8.384-4.736 13.2-10.784 13.2-16.592C497.024 326.544 492.224 320.496 483.824 315.76zM492.24 254.416c-4.096 2.32-9.312.88-11.664-3.248-2.32-4.112-.864-9.328 3.248-11.648 8.384-4.736 13.2-10.784 13.2-16.576s-4.816-11.84-13.2-16.576l-184.688-104.256c-20.768-11.728-55.904-11.744-76.704 0L37.744 206.368c-8.384 4.736-13.184 10.784-13.184 16.576s4.8 11.84 13.184 16.576c4.112 2.32 5.568 7.536 3.248 11.648-2.336 4.128-7.568 5.584-11.664 3.248-14.128-7.968-21.888-19.152-21.888-31.472s7.76-23.504 21.888-31.472l184.688-104.256c13.104-7.392 29.936-11.104 46.752-11.104 16.832 0 33.664 3.696 46.768 11.104l184.688 104.256c14.128 7.968 21.904 19.152 21.904 31.472S506.352 246.448 492.24 254.416zM492.24 147.136c-4.096 2.32-9.312.88-11.664-3.248-2.32-4.112-.864-9.328 3.248-11.648 8.384-4.736 13.2-10.784 13.2-16.576 0-5.792-4.816-11.84-13.2-16.592l-184.688-104.256c-20.768-11.728-55.904-11.744-76.704 0L37.744 99.088c-8.384 4.736-13.184 10.784-13.184 16.592 0 5.792 4.8 11.84 13.184 16.576 4.112 2.32 5.568 7.536 3.248 11.648-2.336 4.112-7.568 5.584-11.664 3.248C15.232 139.168 7.456 128 7.456 115.664s7.76-23.504 21.888-31.472l184.688-104.256c13.104-7.392 29.936-11.104 46.752-11.104 16.832 0 33.664 3.696 46.768 11.104l184.688 104.256c14.128 7.984 21.904 19.152 21.904 31.472S506.352 139.168 492.24 147.136z" unicode="&#xe031;"/><glyph d="M0-23.664c0-4.416 3.584-8 8-8l497.776 0c1.072 0 2.112.208 3.088.624.976.416 1.856 1.008 2.592 1.744.016.016.032.016.048.032.048.048.048.144.112.192.816.88 1.344 1.952 1.712 3.12.112.368.16.72.224 1.104.064.4.24.752.24 1.168 0 .64-.224 1.2-.368 1.792-.048.224.048.448-.032.672l-50.56 155.44c-.384 1.2-1.056 2.304-1.952 3.184L187.008 411.296c-.288.448-.496.928-.88 1.328L126.304 472.448c-9.712 9.712-25.52 9.712-35.248 0L7.296 388.688C2.592 383.984 0 377.728 0 371.072s2.592-12.928 7.296-17.632l58.496-58.496c.288-.432.48-.928.864-1.312l273.44-275.28c.944-.96 2.096-1.648 3.392-2.032l107.408-32L8-15.68C3.584-15.664 0-19.248 0-23.664zM101.792 317.424l250.992-247.776-9.232-32.032L83.632 299.264 101.792 317.424zM365.056 80 113.088 328.72l38.992 38.992 249.712-250.368L401.792 80 365.056 80zM411.76 130 163.392 379.024l16.624 16.624 259.376-259.376L411.76 130zM367.808 64l41.984 0c4.416 0 8 3.584 8 8l0 42.96 32.112 7.296 43.568-133.92L357.664 28.8 367.808 64zM16 371.072C16 373.456 16.928 375.68 18.608 377.376l83.76 83.76c3.472 3.472 9.12 3.488 12.624 0l53.952-53.952-96.368-96.368L18.624 364.768C16.928 366.448 16 368.688 16 371.072z" unicode="&#xe032;"/><glyph d="M3.376 389.664c-13.552-13.568-10.656-32.672.128-43.44.432-.416 43.744-41.792 104.656-102.704 1.568-1.568 3.616-2.336 5.664-2.336s4.096.784 5.664 2.336c3.12 3.12 3.12 8.192 0 11.312-9.184 9.184-17.92 17.872-26.208 26.096l25.424 25.424c3.12 3.12 3.12 8.192 0 11.312s-8.192 3.12-11.312 0l-25.488-25.488c-14.256 14.08-26.816 26.368-37.04 36.336l57.84 57.84c3.12 3.12 3.12 8.192 0 11.312s-8.192 3.12-11.312 0L33.376 339.648c-11.776 11.408-18.56 17.888-18.672 18-3.376 3.376-7.808 12.88 0 20.688l80 80C97.792 461.472 106.016 467.696 115.04 458.72c.4-.448 40.8-46.336 102.464-108 3.12-3.12 8.192-3.12 11.312 0s3.12 8.192 0 11.312C167.536 423.296 127.44 468.832 126.704 469.664c-14.912 14.88-32.896 10.416-43.312 0L3.376 389.664zM342.704 93.664c-3.12 3.12-8.192 3.12-11.312 0l-25.456-25.44c-7.76 7.856-15.904 16.08-24.48 24.656-3.12 3.12-8.192 3.12-11.312 0s-3.12-8.192 0-11.312c59.264-59.248 100.656-103.504 101.248-104.144 5.488-5.504 13.008-8.528 21.168-8.528l0 0c8.4 0 16.896 3.28 22.16 8.56l79.968 80.912c10.064 10.064 10.64 27.136 1.248 36.56l-107.296 107.28c-3.12 3.12-8.192 3.12-11.312 0s-3.12-8.192 0-11.312l107.296-107.28c3.2-3.2 2.592-10.112-1.264-13.968l-79.984-80.912c-1.84-1.856-6.016-3.84-10.816-3.84 0 0 0 0 0 0-2.752 0-6.688.672-9.664 3.664-.16.176-6.864 7.328-18.496 19.504l58.304 58.304c3.12 3.12 3.12 8.192 0 11.312s-8.192 3.12-11.312 0l-58.064-58.064c-9.984 10.384-22.224 23.008-36.16 37.216l25.536 25.536C345.824 85.472 345.824 90.528 342.704 93.664zM-4.688-29.264c1.536-1.568 3.6-2.4 5.728-2.4.768 0 1.536.112 2.288.336l160 47.664c1.296.384 2.448 1.072 3.392 2.032l273.44 275.28c.384.384.576.88.864 1.312l58.496 58.496c4.704 4.72 7.312 10.976 7.312 17.648 0 6.656-2.608 12.912-7.312 17.6L415.76 472.448c-9.408 9.408-25.84 9.408-35.248 0l-59.824-59.824c-.384-.384-.592-.88-.88-1.328L45.952 137.424c-.896-.896-1.568-1.984-1.952-3.184l-50.56-155.44C-7.488-24.032-6.768-27.12-4.688-29.264zM326.8 395.664l16.624-16.624L95.056 130l-27.632 6.272L326.8 395.664zM105.04 117.344 354.752 367.712l38.976-38.976L141.76 80 105.04 80 105.04 117.344zM423.184 299.264 163.28 37.6l-9.232 32.032L405.04 317.424 423.184 299.264zM56.928 122.256 89.04 114.96 89.04 72C89.04 67.584 92.624 64 97.04 64l41.984 0 10.144-35.2L13.36-11.664 56.928 122.256zM391.84 461.136c3.376 3.376 9.248 3.376 12.624 0l83.76-83.76c1.68-1.68 2.608-3.92 2.608-6.304 0-2.368-.928-4.624-2.624-6.32l-53.936-53.952-96.368 96.368L391.84 461.136z" horiz-adv-x="496" unicode="&#xe033;"/><glyph d="M453.664 458.336c1.84 1.84 2.672 4.464 2.224 7.024-.448 2.56-2.112 4.752-4.48 5.856-36.656 17.28-80.16 9.696-108.768-19.056-27.168-27.344-36.656-70.288-23.984-106.192L134.032 161.344C124 164.928 113.28 166.72 102.096 166.72c-27.424 0-54.016-10.912-72.944-29.952-28.512-28.672-36.544-71.04-20.496-107.952 1.056-2.432 3.248-4.192 5.856-4.672 2.624-.496 5.296.336 7.152 2.224l55.856 56.144c3.68 3.712 9.616 4.208 12.688 1.088l24.112-25.232c3.504-3.536 3.344-8.992-.352-12.72l-55.648-56c-1.84-1.84-2.656-4.464-2.208-7.024.448-2.56 2.112-4.736 4.464-5.84 13.264-6.256 27.216-9.408 41.456-9.408 25.152 0 49.04 10.112 67.312 28.48 27.168 27.328 36.656 70.272 23.968 106.176l184.624 184.64c10.048-3.584 20.768-5.376 31.952-5.376 27.424 0 54.016 10.912 72.944 29.952 28.512 28.672 36.544 71.04 20.496 107.952-1.056 2.432-3.248 4.192-5.856 4.672-2.576.448-5.28-.336-7.152-2.224l-55.856-56.144c-3.44-3.456-9.28-3.424-12.816.16l-23.984 23.984c-3.616 3.632-3.6 9.088-.016 12.704L453.664 458.336zM386.336 378.336l23.984-23.984c9.584-9.632 26-9.68 35.488-.144l46.88 47.104c7.504-27.856-.256-57.744-21.184-78.816-15.952-16.048-38.384-25.232-61.6-25.232-10.928 0-21.28 2.048-30.768 6.08-3.008 1.296-6.48.592-8.784-1.696l-192-192c-2.304-2.304-2.976-5.76-1.712-8.752 12.848-30.56 5.024-70-18.608-93.776-21.136-21.248-51.904-28.816-79.76-20.128l47.056 47.36c9.936 10 10.096 25.504.464 35.168l-24.096 25.232c-9.296 9.36-25.824 8.784-35.488-.992l-46.88-47.104c-7.504 27.856.256 57.744 21.184 78.816 15.952 16.048 38.384 25.232 61.6 25.232 10.928 0 21.28-2.048 30.768-6.08 2.992-1.312 6.48-.592 8.784 1.696l192 192c2.304 2.304 2.976 5.76 1.712 8.752-12.848 30.56-5.024 70.016 18.608 93.792 21.12 21.248 51.872 28.768 79.712 20.128l-47.36-47.376C376.48 403.744 376.48 388.256 386.336 378.336zM467.36-10.352c-3.536-3.552-9.664-3.552-13.232.032l-160.48 160c-3.12 3.088-8.192 3.104-11.312-.032-3.12-3.12-3.104-8.192.016-11.312l160.464-159.968c4.8-4.816 11.168-7.472 17.952-7.472 0 0 0 0 0 0 6.784 0 13.152 2.656 18.048 7.584l22.864 23.888c9.84 9.888 9.84 25.392-.016 35.296l-160 160c-3.12 3.12-8.192 3.12-11.312 0s-3.12-8.192 0-11.312l159.984-159.984c3.664-3.68 3.664-9.024-.112-12.832L467.36-10.352zM93.664 429.664l-48 48c-3.12 3.12-8.192 3.12-11.312 0l-32-32c-3.12-3.12-3.12-8.192 0-11.312l48-48C51.904 384.784 53.952 384 56 384s4.096.784 5.664 2.336L72 396.688l122.336-122.336C195.904 272.784 197.952 272 200 272s4.096.784 5.664 2.336c3.12 3.12 3.12 8.192 0 11.312L83.312 408l10.336 10.336C96.784 421.472 96.784 426.528 93.664 429.664zM56 403.312 19.312 440 40 460.688 76.688 424 56 403.312z" unicode="&#xe034;"/><glyph d="M408 16c30.88 0 56 25.12 56 56S438.88 128 408 128 352 102.88 352 72 377.12 16 408 16zM408 112c22.048 0 40-17.936 40-40S430.048 32 408 32 368 49.936 368 72 385.952 112 408 112zM299.712 96.8c0-23.216 5.712-52.336 13.376-68.816C328.768-11.808 359.616-32 404.8-32c59.104 0 107.2 48.096 107.2 107.2 0 57.488-45.088 99.2-107.2 99.2-70.608 0-93.648 37.936-94.56 39.504-.32.544-.688 1.056-1.12 1.52L63.44 477.472c-2.24 2.384-5.728 3.152-8.784 1.968C51.616 478.24 49.6 475.28 49.6 472c0-154.416 102.976-235.44 178.16-294.576C267.968 145.792 299.712 120.832 299.712 96.8zM66.304 451.024l230.592-245.952C301.184 198.288 329.6 158.4 404.8 158.4c52.848 0 91.2-34.992 91.2-83.2 0-50.304-40.912-91.2-91.2-91.2-38.48 0-63.616 16.32-77.008 50.304-5.856 12.576-12.08 38.768-12.08 62.496 0 31.792-34.448 58.896-78.048 93.2C168.592 244.336 75.232 317.76 66.304 451.024zM48 72C48 41.12 73.12 16 104 16s56 25.12 56 56S134.88 128 104 128 48 102.88 48 72zM144 72C144 49.936 126.048 32 104 32S64 49.936 64 72 81.952 112 104 112 144 94.064 144 72zM330.144 232.464c-3.264-2.976-3.504-8.032-.528-11.296 1.584-1.728 3.744-2.608 5.92-2.608 1.92 0 3.856.688 5.392 2.096C397.488 272.176 462.4 347.296 462.4 472c0 3.28-2 6.24-5.056 7.44-3.04 1.168-6.528.416-8.784-1.968l-174.72-186.336c-3.024-3.216-2.864-8.288.368-11.296 3.216-3.008 8.272-2.88 11.312.352l160.224 170.88C438.928 344.992 381.008 278.816 330.144 232.464zM174.576 177.664c4.112 1.6 6.16 6.224 4.576 10.336s-6.24 6.192-10.352 4.56c-3.376-1.312-7.024-2.928-10.944-4.672C144.352 181.888 127.536 174.4 107.2 174.4c-62.112 0-107.2-41.712-107.2-99.2C0 16.096 48.096-32 107.2-32c45.184 0 76.032 20.192 91.504 59.552C206.8 44.912 208 82.912 208 104c0 4.304 12.192 13.488 19.488 18.976 6.736 5.056 13.696 10.304 18.496 15.712 2.928 3.312 2.624 8.368-.672 11.296-3.296 2.944-8.368 2.624-11.296-.672-3.744-4.24-10.048-8.976-16.16-13.568C204.56 125.728 192 116.288 192 104c0-33.152-2.912-59.216-7.984-70.144C170.816.32 145.68-16 107.2-16 56.912-16 16 24.912 16 75.2c0 48.224 38.352 83.2 91.2 83.2 23.744 0 43.056 8.608 57.168 14.896C168.016 174.928 171.424 176.432 174.576 177.664zM243.104 208.256A12.896 12.896 180 1 1 268.896 208.256 12.896 12.896 180 1 1 243.104 208.256z" unicode="&#xe035;"/><glyph d="M246.448 144l73.28 0c16.848 0 30.544 13.696 32.272 30.544L352 449.456C350.272 466.304 336.576 480 319.728 480L32.272 480C15.424 480 1.728 466.304 0 449.456l0-274.912C1.728 157.696 15.424 144 32.272 144l79.392 0c5.568 0 33.328-1.184 33.328-24.672 0-41.952-8.848-61.472-12.192-68.832l-.784-1.744 6.448-2.784 0-.208-7.152 1.44c-.272-.528-.48-1.088-.608-1.664-2.464-6.576-3.712-13.328-3.712-20.112C127.008-8.928 146.688-32 176-32c29.616 0 49.504 23.072 49.504 57.424 0 6.256-1.056 12.48-3.168 18.576-.08 1.824-.784 3.52-1.904 4.832-.416.96-.96 2-1.616 3.232C215.312 58.704 208 72.496 208 119.328 208 129.248 218.24 144 246.448 144zM16 287.056l320 0L336 224 16 224 16 287.056zM32.272 464l287.456 0C327.744 464 334.272 457.472 336 449.456l0-146.384L16 303.072 16 449.456C17.728 457.472 24.256 464 32.272 464zM204.672 44.576c.448-.848.832-1.552 1.488-3.024 0-.016.048-.112.112-.256.064-.208.128-.4.208-.608 2-5.008 3.008-10.16 3.008-15.264C209.504 5.392 200.704-16 176-16c-24.336 0-32.992 21.392-32.992 41.424 0 5.104 1.008 10.256 3.008 15.264.064.192.144.368.192.56.224.48.496 1.088.528 1.152l.672 1.488c3.712 8.224 13.616 30.016 13.616 75.44C160.992 151.44 130 160 111.2 160c0 0 0 0-.016 0L32.272 160C24.256 160 17.728 166.528 16 174.544L16 208l320 0 0-33.456C334.272 166.528 327.744 160 319.728 160l-73.28 0C206.496 160 192 135.664 192 119.328 192 68.528 200.56 52.336 204.672 44.576z" horiz-adv-x="352" unicode="&#xe036;"/><glyph d="M168 480C75.36 480 0 404.64 0 312S75.36 144 168 144c43.6 0 83.248 16.832 113.136 44.16.352-.624.672-1.28 1.216-1.824l34.416-34.416c-2.88-4.864-4.512-10.368-4.512-16.176 0-8.544 3.328-16.576 9.376-22.624l135.76-135.76C463.424-28.672 471.456-32 480-32s16.576 3.328 22.624 9.376S512-8.544 512 0s-3.328 16.576-9.376 22.624l-135.76 135.76c-10.144 10.144-26.544 11.664-38.72 4.784l-34.48 34.48c-.544.544-1.184.864-1.824 1.216C319.168 228.752 336 268.4 336 312 336 404.64 260.64 480 168 480zM355.552 147.072l135.76-135.76C494.336 8.288 496 4.272 496 0s-1.664-8.288-4.688-11.312c-6.064-6.032-16.56-6.032-22.624 0l-135.76 135.76c-3.008 3.024-4.688 7.04-4.688 11.312s1.664 8.288 4.688 11.312c3.024 3.008 7.04 4.688 11.312 4.688S352.512 150.096 355.552 147.072zM168 160C84.192 160 16 228.192 16 312S84.192 464 168 464 320 395.808 320 312 251.808 160 168 160zM168 432C101.824 432 48 378.176 48 312S101.824 192 168 192s120 53.824 120 120S234.176 432 168 432zM168 208C110.656 208 64 254.656 64 312S110.656 416 168 416 272 369.344 272 312 225.344 208 168 208z" unicode="&#xe037;"/><glyph d="M184.224 384c4.416 0 8 3.584 8 8L192.224 416 200 416C204.416 416 208 419.584 208 424l0 48C208 476.416 204.416 480 200 480l-32 0C163.584 480 160 476.416 160 472l0-48C160 419.584 163.584 416 168 416l8.224 0 0-24C176.224 387.584 179.792 384 184.224 384zM176 464l16 0 0-32-16 0L176 464zM4.288-29.072c1.184-.624 2.448-.928 3.712-.928 2.88 0 5.664 1.568 7.072 4.288l68.672 130.768c30.8-15.472 64.944-23.84 100.464-23.84 35.424 0 69.504 8.336 100.24 23.728l68.448-130.656c1.44-2.72 4.224-4.288 7.088-4.288 1.248 0 2.528.304 3.712.912 3.904 2.064 5.424 6.896 3.376 10.816l-68.608 130.96c15.856 9.44 30.752 20.672 44.128 34.048 15.6 15.6 15.6 40.976 0 56.56-15.12 15.12-41.504 15.088-56.56 0-7.568-7.568-15.904-14.08-24.72-19.68l-37.728 72.016c14.608 11.664 24.176 29.392 24.176 49.488 0 35.04-28.512 63.568-63.568 63.568S120.672 340.16 120.672 305.104c0-20.08 9.536-37.792 24.112-49.456L106.976 183.68c-8.768 5.6-17.056 12.08-24.576 19.6-15.12 15.12-41.504 15.088-56.56 0-15.6-15.6-15.6-40.976 0-56.56 13.312-13.312 28.144-24.512 43.92-33.92l-68.832-131.072C-1.136-22.192.368-27.024 4.288-29.072zM54.112 199.008c6.416 0 12.448-2.496 16.992-7.024 30.176-30.176 70.336-46.784 113.12-46.784s82.976 16.608 113.152 46.784c9.056 9.072 24.88 9.04 33.936 0 9.36-9.36 9.36-24.576 0-33.936-39.232-39.216-91.488-60.832-147.088-60.832-55.632 0-107.84 21.616-147.056 60.832-9.36 9.36-9.36 24.576 0 33.936C41.68 196.496 47.696 199.008 54.112 199.008zM136.672 305.104c0 26.224 21.328 47.568 47.552 47.568s47.568-21.344 47.568-47.568-21.344-47.568-47.568-47.568S136.672 278.896 136.672 305.104zM158.384 247.152c7.904-3.536 16.624-5.616 25.84-5.616 9.184 0 17.872 2.048 25.76 5.568l37.36-71.312c-19.424-9.472-40.848-14.624-63.12-14.624-22.336 0-43.808 5.168-63.264 14.688L158.384 247.152z" horiz-adv-x="368" unicode="&#xe038;"/><glyph d="M624 480c-26.464 0-48-21.536-48-48 0-14.208 6.336-26.864 16.176-35.664L451.376 171.84C445.44 174.48 438.896 176 432 176c-13.888 0-26.304-6.016-35.088-15.472l-145.168 91.92C254.432 258.432 256 265.024 256 272c0 26.464-21.536 48-48 48s-48-21.536-48-48c0-14.464 6.56-27.296 16.704-36.096L66.384 60.304C60.72 62.672 54.512 64 48 64c-26.464 0-48-21.536-48-48s21.536-48 48-48 48 21.536 48 48c0 14.208-6.32 26.848-16.16 35.648l110.464 175.84C195.792 225.28 201.744 224 208 224c13.744 0 26.064 5.872 34.816 15.152l145.248-91.968C385.488 141.296 384 134.832 384 128c0-26.464 21.536-48 48-48s48 21.536 48 48c0 13.808-5.936 26.176-15.312 34.944l140.96 224.736C611.312 385.328 617.504 384 624 384c26.464 0 48 21.536 48 48S650.464 480 624 480zM80 16c0-17.648-14.352-32-32-32s-32 14.352-32 32 14.352 32 32 32S80 33.648 80 16zM208 240c-17.648 0-32 14.352-32 32s14.352 32 32 32 32-14.352 32-32S225.648 240 208 240zM432 96c-17.648 0-32 14.352-32 32s14.352 32 32 32 32-14.352 32-32S449.648 96 432 96zM624 400c-17.648 0-32 14.352-32 32s14.352 32 32 32 32-14.352 32-32S641.648 400 624 400z" horiz-adv-x="672" unicode="&#xe039;"/><glyph d="M112 95.888 112 32 64.544 32c-18.256 0-32-13.744-32-32l0-24c0-4.416 3.584-8 8-8l160 0c4.416 0 8 3.584 8 8l0 22.8c0 18.624-14.064 33.2-32 33.2L128 32l0 63.888c63.568 4.448 113.088 56.96 113.088 121.024l0 30.192c0 4.72-3.824 8.544-8.544 8.544S224 251.808 224 247.088l0-30.192c0-57.552-46.4-104.352-103.456-104.352s-103.456 46.816-103.456 104.352l0 30.192c0 4.72-3.824 8.544-8.544 8.544S0 251.808 0 247.088l0-30.192C0 152.848 49.52 100.336 112 95.888zM192.544-1.2 192.544-16l-144 0 0 16c0 9.424 6.576 16 16 16l112 0C185.664 16 192.544 8.608 192.544-1.2zM120.544 480.544C80.544 480.544 48 447.6 48 407.088l0-190.192c0-40.496 32.544-73.456 72.544-73.456s72.544 32.96 71.456 73.456L192 407.088C193.088 447.6 160.544 480.544 120.544 480.544zM176 216.912c0-31.072-24.88-56.352-55.456-56.352S64 185.824 64 216.912L64 407.088c0 31.072 25.968 56.352 56.544 56.352S176 438.176 176 407.088L176 216.912z" horiz-adv-x="240" unicode="&#xe03a;"/><glyph d="M352-24c0 4.416-3.584 8-8 8l-288 0C51.584-16 48-19.584 48-24S51.584-32 56-32l288 0C348.416-32 352-28.416 352-24zM20.384 330.336c-6.688-4.448-16.832-17.984-7.216-37.216 7.984-15.952 24.64-35.472 42.352-40.624 9.024-2.656 17.92-1.552 25.68 3.136 17.584 10.528 38.352 24.768 47.152 30.88 11.104-5.616 25.12-6.784 39.36-3.12.064.016.128.048.192.064-.832-26.416-9.776-42.912-53.504-83.52-38.976-36.176-62.096-83.696-61.872-127.136.16-28.496 10.544-52.96 30.08-70.704C84.096.736 86.016 0 88 0l224 0c4.416 0 8 3.584 8 8S316.416 16 312 16L91.184 16c-14.704 14.48-22.512 34.08-22.64 56.88-.208 38.432 21.552 82.64 56.752 115.328C171.936 231.504 184 252.016 184 288c0 .656-.224 1.232-.368 1.84 8.752 4.72 16.32 10.96 21.488 18.512 6.48 9.44 20.432 33.68 10.08 55.136-1.92 3.952-6.704 5.632-10.688 3.712-3.968-1.92-5.648-6.704-3.712-10.688 4.656-9.648 1.344-24.272-8.864-39.12-5.888-8.576-16.416-15.504-28.176-18.512-11.952-3.056-23.312-1.712-31.232 3.712-2.768 1.888-6.4 1.872-9.136-.064-.288-.192-28.432-20.016-50.384-33.184-4.016-2.4-8.256-2.912-12.992-1.504-12.384 3.616-26 19.392-32.512 32.416-5.264 10.528.128 15.552 2.576 17.344 55.152 47.632 82.832 97.12 83.968 99.216C115.104 418.768 115.328 421.072 114.624 423.2c-.08.24-5.6 17.008-8.64 32.528 16.736-10.08 45.52-24.16 75.488-24.16 41.664 0 138.528-15.552 138.528-159.616 0-.784-.144-79.104-31.52-165.232-1.52-4.144.624-8.736 4.784-10.256C294.176 96.16 295.088 96 296 96c3.264 0 6.336 2.016 7.52 5.264C335.856 190.032 336.016 268.72 336 272c0 162.928-118.288 175.584-154.528 175.584-40.144 0-80.192 30.448-80.576 30.768C98.448 480.192 95.216 480.496 92.464 479.168 89.728 477.824 88 475.04 88 472c0-15.696 7.44-41.088 10.336-50.352C91.648 410.48 65.28 369.152 20.384 330.336zM279.76 455.36C254.144 472.624 225.504 480 184 480 179.584 480 176 476.416 176 472S179.584 464 184 464c38.08 0 64.048-6.544 86.832-21.904C307.856 417.104 352 367.312 352 272c0-23.216 0-55.008-15.76-118.064-1.056-4.288 1.536-8.624 5.824-9.696C342.72 144.08 343.36 144 344 144c3.6 0 6.864 2.416 7.76 6.064C368 215.008 368 247.952 368 272 368 374.336 320.016 428.208 279.76 455.36z" horiz-adv-x="368" unicode="&#xe03b;"/><glyph d="M280 464C284.416 464 288 467.584 288 472S284.416 480 280 480l-144 0C131.584 480 128 476.416 128 472S131.584 464 136 464L280 464zM15.84 37.84c-17.184-24.176-15.264-39.968-10.624-48.96C10.128-20.64 22.928-32 56-32l320 0c33.072 0 45.872 11.36 50.784 20.896 4.64 8.992 6.56 24.784-10.368 48.544l-99.504 159.2-1.408 1.984C308.352 208.832 272 271.648 272 324L272 440C272 444.416 268.416 448 264 448l-112 0C147.584 448 144 444.416 144 440l0-116c0-55.856-39.44-127.312-39.888-128.08L15.84 37.84zM412.576-3.76C408.56-11.552 395.232-16 376-16l-320 0c-19.232 0-32.56 4.448-36.576 12.24-3.664 7.104-.32 18.592 9.92 33.056l79.984 143.168.112-.064c14.56-8.4 29.616-17.088 59.504-17.088s44.96 8.672 59.504 17.056c13.328 7.68 25.904 14.944 51.52 14.944 9.712 0 18.128-1.2 25.872-3.36l97.28-155.392C412.896 14.832 416.24 3.344 412.576-3.76zM160 324 160 432l96 0 0-108c0-45.44 24.256-96.672 38.464-121.632-4.64.528-9.36.944-14.48.944-29.904 0-44.96-8.672-59.504-17.056-13.328-7.68-25.904-14.944-51.52-14.944-25.616 0-38.192 7.264-51.504 14.944l-.304.176.736 1.312C118.288 188.384 160 262.72 160 324z" horiz-adv-x="432" unicode="&#xe03c;"/><glyph d="M348.784 432.736C331.104 463.2 307.04 480 281.024 480c-26.016 0-50.096-16.8-67.776-47.264L16.944 94.608c-17.92-31.152-19.84-63.504-5.28-88.736 13.856-24 41.04-37.808 74.624-37.872l389.456 0c0 0 0 0 .016 0 33.632.064 60.864 13.824 74.672 37.776 14.48 25.072 12.528 57.296-5.36 88.4L348.784 432.736zM536.592 13.776c-10.896-18.88-33.072-29.728-60.864-29.776L86.304-16c-27.696.048-49.84 10.944-60.784 29.872-11.632 20.16-9.696 46.672 5.28 72.736L227.088 424.704C241.792 450.048 260.944 464 281.024 464c20.08 0 39.232-13.952 53.92-39.296l196.288-338.512C546.192 60.176 548.144 33.776 536.592 13.776zM281.024 160c4.416 0 8 3.584 8 8l0 160c0 4.416-3.584 8-8 8s-8-3.584-8-8l0-160C273.024 163.584 276.608 160 281.024 160zM280 120c-17.648 0-32-14.352-32-32s14.352-32 32-32 32 14.352 32 32S297.648 120 280 120zM280 72c-8.816 0-16 7.168-16 16s7.184 16 16 16 16-7.168 16-16S288.816 72 280 72z" horiz-adv-x="560" unicode="&#xe03d;"/><glyph d="M194.368 437.344 145.36 364.464C142.896 360.8 143.872 355.824 147.536 353.36c3.664-2.464 8.64-1.488 11.104 2.176l49.296 73.328C221.056 451.536 238.144 464 256 464s34.944-12.464 48.048-35.104l88.224-153.6-62.72 12.544c-4.368.912-8.56-1.936-9.408-6.288-.864-4.336 1.952-8.544 6.272-9.408l80-16C406.96 256.048 407.488 256 408 256c1.264 0 2.448.4 3.536.944.144.064.304.032.448.112.16.096.256.256.416.368.528.352.992.768 1.424 1.248.256.272.512.512.72.816.336.496.56 1.04.784 1.6.144.368.336.704.416 1.088.016.096.08.16.096.256l16 80c.864 4.336-1.952 8.544-6.272 9.408-4.368.912-8.56-1.936-9.408-6.288l-11.824-59.12L317.92 436.896C301.792 464.688 279.808 480 256 480S210.208 464.688 194.368 437.344zM160 23.696c0 4.416-3.584 8-8 8L80.016 31.696c-24.752.048-44.544 9.744-54.272 26.624-10.368 17.968-8.624 41.664 4.8 65.008l88.192 154.304 25.84-64.624C145.824 209.904 148.832 208 152 208c.992 0 2 .192 2.976.576 4.096 1.648 6.096 6.304 4.464 10.384l-32 80c-.16.416-.448.72-.672 1.088-.208.336-.352.672-.608.992C125.6 301.712 124.96 302.24 124.256 302.688c-.112.08-.176.192-.288.256-.016.016-.032 0-.048.016-.896.512-1.872.816-2.912.944-.176.016-.336-.032-.512-.016-.688.048-1.36.096-2.064-.064l-80-16c-4.336-.864-7.136-5.072-6.272-9.408.864-4.336 5.008-7.152 9.408-6.288l62.752 12.544-87.68-153.408c-16.336-28.4-18.064-57.92-4.768-80.976 12.672-21.936 37.488-34.56 68.112-34.624l72 0C156.416 15.696 160 19.28 160 23.696zM500.224 50.464c13.168 22.816 11.392 52.128-4.496 79.68l-32.4 73.088c-1.792 4.032-6.512 5.888-10.56 4.064-4.032-1.792-5.856-6.512-4.064-10.56l32.784-73.824c13.344-23.232 15.136-46.72 4.896-64.448-9.68-16.784-29.504-26.416-54.384-26.464L267.04 31.728l34.608 34.608c3.12 3.12 3.12 8.192 0 11.312s-8.192 3.12-11.312 0l-48-48c-1.6-1.6-2.352-3.712-2.32-5.808 0-.048-.032-.096-.032-.16 0-2.592 1.328-4.8 3.264-6.256l47.088-47.088C291.904-31.216 293.952-32 296-32s4.096.784 5.664 2.336c3.12 3.12 3.12 8.192 0 11.312l-34.08 34.08L432.016 16C462.736 16.064 487.6 28.624 500.224 50.464z" unicode="&#xe03e;"/><glyph d="M12.992 177.664 48 212.688 48 200C48 78.576 158.576-32 280-32S512 78.576 512 200l0 12.352 35.344-35.344c1.568-1.568 3.616-2.336 5.664-2.336s4.096.784 5.664 2.336c3.12 3.12 3.12 8.192 0 11.312l-48.288 48.288C508.912 238.608 506.672 240 504 240c-.72 0-1.344-.224-2.016-.4-1.472-.304-2.896-.864-3.984-1.936l-48.672-48.672c-3.12-3.12-3.12-8.192 0-11.312s8.192-3.12 11.312 0L496 213.024 496 200c0-110.368-98.16-210.832-208-215.552L288 288l136 0c4.416 0 8 3.584 8 8S428.416 304 424 304L288 304 288 368.816c27.072 3.92 48 27.056 48 55.184C336 454.88 310.88 480 280 480S224 454.88 224 424c0-28.128 20.928-51.264 48-55.184L272 304 136 304C131.584 304 128 300.416 128 296S131.584 288 136 288L272 288l0-303.552C162.16-10.832 64 89.632 64 200l0 12.688 35.68-35.68c1.568-1.568 3.616-2.336 5.664-2.336s4.096.784 5.664 2.336c3.12 3.12 3.12 8.192 0 11.312l-49.328 49.312C60.224 239.104 58.208 240 56 240s-4.224-.896-5.664-2.352l-48.656-48.656c-3.12-3.12-3.12-8.192 0-11.312S9.872 174.544 12.992 177.664zM280 464C302.048 464 320 446.064 320 424S302.048 384 280 384 240 401.936 240 424 257.952 464 280 464z" horiz-adv-x="560" unicode="&#xe03f;"/><glyph d="M8-31.728c4.288-1.072 8.672 1.408 9.792 5.664 16.48 61.488 83.456 77.424 123.488 86.96 10.032 2.384 17.952 4.272 23.104 6.496 45.6 19.792 60.464 51.632 64.912 74.864.544 2.8-.464 5.68-2.64 7.568-23.744 20.496-43.776 51.264-56.416 86.656-.352 1.008-.912 1.936-1.648 2.736-16.72 18.176-26.32 37.392-26.32 52.704 0 8.944 3.376 14.944 10.976 19.472 2.32 1.392 3.776 3.84 3.888 6.528C160.672 399.424 218.72 463.584 289.92 464c.08 0 1.632-.112 1.712-.112 71.552-.992 129.232-66.528 131.296-149.184.064-2.288 1.088-4.432 2.848-5.904 5.008-4.24 7.344-9.616 7.344-16.912 0-12.816-6.832-28.576-19.216-44.352-.592-.752-1.04-1.616-1.344-2.528-12.8-40.576-35.776-76.4-63.008-98.32-2.304-1.856-3.392-4.832-2.848-7.728 4.448-23.216 19.312-55.04 64.912-74.864 5.392-2.336 13.76-4.16 24.368-6.448 39.632-8.576 105.952-22.96 122.224-83.712.96-3.568 4.192-5.92 7.712-5.92.688 0 1.376.096 2.08.272 4.272 1.152 6.8 5.536 5.664 9.808-18.8 70.192-93.936 86.464-134.288 95.2-9.36 2.032-17.44 3.776-21.376 5.504-29.76 12.928-48.096 32.624-54.576 58.64 27.632 23.728 50.752 60.336 63.968 101.392 14.032 18.24 21.744 37.024 21.744 53.072 0 10.704-3.456 19.632-10.304 26.608C435.024 408.176 371.04 478.784 291.632 479.92l-2.384.032c-77.968-.416-142.224-69.168-147.84-157.28-10.016-7.36-15.104-17.68-15.104-30.784 0-18.928 10.704-41.568 29.44-62.336 12.944-35.568 33.008-66.816 56.896-88.688-6.448-26.112-24.8-45.872-54.624-58.816-3.856-1.68-11.536-3.52-20.432-5.632-40.656-9.664-116.304-27.664-135.248-98.352C1.2-26.208 3.728-30.576 8-31.728z" horiz-adv-x="576" unicode="&#xe040;"/><glyph d="M355.52 148.384c-2.512.384-5.072-.608-6.8-2.48-1.744-1.856-2.496-4.448-2.016-6.96 4.416-23.2 19.28-55.04 64.912-74.864 5.408-2.336 13.76-4.16 24.352-6.448 39.648-8.576 105.952-22.944 122.24-83.712C559.168-29.648 562.4-32 565.936-32c.688 0 1.376.096 2.08.272 4.272 1.152 6.8 5.536 5.664 9.808-18.832 70.192-93.952 86.464-134.32 95.2-9.344 2.032-17.424 3.776-21.376 5.504-27.424 11.904-45.136 29.568-52.816 52.576 76.192-5.664 110.688 24.688 112.208 26.064 1.888 1.712 2.864 4.256 2.576 6.8s-1.76 4.8-3.984 6.08C432 195.424 432 282.224 432 314.912c0 91.408-61.568 163.872-140.496 165.008-.224.016-1.936.048-2.256.048 0 0 0 0-.016 0C209.152 479.52 144 406.976 144 318.24c0-32.688 0-119.504-43.968-144.608-2.32-1.328-3.808-3.712-4.016-6.368-.192-2.656.96-5.248 3.056-6.896 2.208-1.712 51.008-39.056 111.056-27.712-8.032-22.048-25.504-39.008-52.128-50.576-3.856-1.68-11.536-3.52-20.432-5.632-40.64-9.664-116.304-27.664-135.248-98.352-1.136-4.288 1.392-8.656 5.664-9.808 4.336-1.072 8.656 1.408 9.808 5.664 16.464 61.504 83.472 77.424 123.488 86.96 10.032 2.384 17.952 4.272 23.104 6.496 45.632 19.824 60.48 51.664 64.912 74.864.528 2.768-.432 5.616-2.544 7.472-2.096 1.872-4.992 2.512-7.712 1.664-43.312-13.632-83.328 5.12-100.816 15.52C160 201.904 160 282.4 160 318.24c0 79.952 58.016 145.328 129.92 145.76.08 0 1.632-.096 1.696-.096C362.528 462.896 416 398.848 416 314.912c0-35.856 0-116.528 41.952-151.504C443.504 155.152 410.56 141.792 355.52 148.384z" horiz-adv-x="576" unicode="&#xe041;"/></font>
</defs>
</svg>
